<?xml version="1.0" standalone="no"?>
<!DOCTYPE svg PUBLIC "-//W3C//DTD SVG 1.1//EN" "http://www.w3.org/Graphics/SVG/1.1/DTD/svg11.dtd">
<svg xmlns="http://www.w3.org/2000/svg">
<metadata>BuddyBoss</metadata>
<defs>
<font id="round-filled" horiz-adv-x="1000" >
<font-face font-family="round-filled" font-weight="400" font-stretch="normal" units-per-em="1000" ascent="850" descent="-150" />
<missing-glyph horiz-adv-x="1000" />
<glyph glyph-name="brand-meetup" unicode="&#xe800;" d="M500 850c-276 0-500-224-500-500 0-276 224-500 500-500 276 0 500 224 500 500 0 276-224 500-500 500z m68-208c18 0 31-14 31-30 0-17-13-31-31-31-17 0-30 14-30 31 0 16 13 30 30 30z m-256-101c0 11 9 20 20 20 12 0 21-9 21-20 0-11-9-20-21-20-11 0-20 9-20 20z m472-181c12 0 21-9 21-20 0-11-9-20-21-20-11 0-20 9-20 20 0 11 9 20 20 20z m-493-191c0 6 5 10 10 10 6 0 11-4 11-10 0-6-5-10-11-10-5 0-10 4-10 10z m380-30c17 0 31-14 31-30 0-17-14-31-31-31-17 0-31 14-31 31 0 16 14 30 31 30z m-174-40c11 0 20-9 20-21 0-11-9-20-20-20-12 0-21 9-21 20 0 12 9 21 21 21z m-21 482c29 0 56-9 76-26 12 4 24 6 37 6 62 0 113-49 113-110 0-2 0-3 0-5l0 0c0-1 0-1 0-2 24-11 41-36 41-64 0-18-8-35-20-48 13-18 20-39 20-62 0-59-46-107-105-111-9-34-41-60-80-60-22 0-43 9-58 23-18-14-40-23-65-23-57 0-103 45-103 100l0 2c-46 9-82 50-82 99 0 28 12 53 30 71-6 12-9 25-9 39 0 49 39 89 89 91 17 47 62 80 116 80z m44-165c-6 0-10-3-16-8 0 0 0-1-1-1-3-3-10-9-16-7-2 2-13 7-20 10-14 6-34-4-41-17-10-16-26-71-33-94l0 0 0 0c-1-5-2-8-3-10-7-22 9-41 31-39 10 0 16 3 22 14 2 3 11 27 20 50l0 0 0 0 0 0c9 21 17 42 18 44 2 3 8 7 12 4 5-2 6-8 6-12-1-5-8-22-15-38l0 0c-5-13-10-25-10-27-3-19 23-22 33-3 1 1 5 9 10 20 12 23 30 58 32 62 4 5 6 7 10 6 3 0 7 0 6-9-1-4-8-18-15-33-8-16-16-33-18-40-4-17 6-35 21-42 10-5 53-13 50 9-1 8-10 10-18 11-9 1-18 2-19 12-1 13 9 35 18 56l0 0c9 20 18 39 16 50-3 20-16 25-28 25-11 0-14-2-18-4l0 0c-1 0-1 0-1 0-3-2-5-3-9 0-1 1-2 2-2 2-5 5-9 8-15 9-2 1-5 1-7 0z" horiz-adv-x="1000" />

<glyph glyph-name="ball-soccer" unicode="&#xe801;" d="M500 850c-276 0-500-224-500-500 0-276 224-500 500-500 276 0 500 224 500 500 0 276-224 500-500 500z m-89-433l63 43-4 99-64 40c-43-17-81-44-109-79l17-75 97-28z m-114-23l-57-50c3-47 18-92 44-129l77-7 56 83-23 74-97 29z m106-221l26-61c21-6 43-9 66-9 27 0 52 4 76 12l27 63-60 81h-78l-57-86z m240 36l63 5c28 40 44 88 45 139l-48 42-97-29-24-76 61-81z m-115 250l60-42 98 30 15 64c-28 37-65 67-109 85l-68-39 4-98z m-33 210c171 0 310-139 310-310 0-171-139-310-310-310-171 0-310 139-310 310 0 171 139 310 310 310z" horiz-adv-x="1000" />

<glyph glyph-name="brand-onesignal" unicode="&#xe802;" d="M500-150c276 0 500 224 500 500 0 276-224 500-500 500-276 0-500-224-500-500 0-276 224-500 500-500z m292 500c0-111-63-208-155-257-29 27-66 45-108 51l0 4 0 0 0 38 0 0v70l0 21 0 0 0 102h-80v-29h22l0-73 0 0 0-21v-70l0 0 0-38 0 0 0-4c-42-6-79-24-108-51-92 49-155 146-155 257 0 161 131 292 292 292 161 0 292-131 292-292z m-496 0c0-90 58-166 139-193l7-3 0 40c-63 24-108 85-108 156 0 92 74 166 166 166 92 0 166-74 166-166 0-69-42-128-101-153l-7-3 0-40c85 25 146 104 146 196 0 113-91 204-204 204-113 0-204-91-204-204z m87 0c0-41 21-77 53-98l6-3 0 48c-13 14-21 33-21 53 0 44 36 79 79 79 44 0 79-35 79-79 0-18-6-35-17-49l-4-4 0-48c35 20 59 58 59 101 0 64-53 117-117 117-64 0-117-53-117-117z" horiz-adv-x="1000" />

<glyph glyph-name="calendar" unicode="&#xe803;" d="M500 850c-276 0-500-224-500-500 0-276 224-500 500-500 276 0 500 224 500 500 0 276-224 500-500 500z m-118-219c17 0 31-14 31-31v-26h148v26c0 17 14 31 31 31 17 0 31-14 31-31v-26h21c44 0 80-38 80-84v-37h-474v37c0 46 36 84 80 84h20v26c0 17 14 31 32 31z m-132-233h474v-214c0-47-36-84-80-84h-314c-44 0-80 37-80 84v214z" horiz-adv-x="1000" />

<glyph glyph-name="thumbtack" unicode="&#xe804;" d="M1000 350c0 276-224 500-500 500-276 0-500-224-500-500 0-276 224-500 500-500 276 0 500 224 500 500z m-673 292l323-1c14 0 25-11 25-24 0-13-9-23-21-25l-4 0h-41l11-221 2-1c60-30 95-81 106-152l1-9c2-15-10-28-25-28l-194 0 0-127c0-13-11-25-24-25-13 0-23 10-25 22l0 3 0 127-186 0c-15 0-26 13-25 28l1 9c11 71 47 122 106 152l2 1 11 221-43 0c-14 0-25 11-25 25 0 12 9 23 21 24l4 1z" horiz-adv-x="1000" />

<glyph glyph-name="award-slash" unicode="&#xe805;" d="M491 308c11 0 21 2 31 5l-135 123c-1-6-2-13-2-20 0-60 47-108 106-108z m9-458c276 0 500 224 500 500 0 276-224 500-500 500-276 0-500-224-500-500 0-276 224-500 500-500z m-9 674c-20 0-39-6-55-16l-88 80c8 7 18 12 29 13h8c25-1 51 9 70 26l3 2c2 2 4 4 7 5 16 10 36 10 51 0l4-2c1-1 3-2 4-3l2-2c20-17 45-27 71-26h3c25 1 47-18 51-43l0-3c4-24 15-46 33-63l5-4 2-2c19-16 24-44 11-66l0 0-2-3c-13-23-17-49-12-75v0l0-4c4-17-3-35-15-47l-87 79c7 14 10 30 10 46 0 60-47 108-105 108z m-27-358l3 2 5 1-36-101c-3-7-11-11-18-8-1 0-3 1-4 2l-38 35-52-2c-7 0-13 6-14 13 0 2 1 4 1 5l37 103c2-2 3-4 4-6l2-3c21-40 68-57 110-41z m167 47l-30 27c-2-3-5-7-7-11l-1-2c-12-23-39-32-62-23l-3 1c-24 9-51 9-76 0l-2-1c-24-9-50 1-62 23l-2 2c-12 24-33 41-57 50l-1 0h0l-2 1c-3 1-5 2-8 4l-3 2c-17 11-26 31-22 52l1 3v1c5 26 0 52-13 75l-2 3v0c-13 22-8 50 12 66l2 2c6 5 12 12 17 18l-53 48c-9 9-9 22-1 31 8 9 22 10 31 2l435-397c9-8 9-22 1-31-8-9-22-9-31-1l-56 51 33-96c1-2 1-4 1-5 0-7-5-12-11-13h-3l-51 2-38-35c-1-1-3-2-5-3-6-2-12 1-16 6l0 2-37 102c2 0 4-1 5-2l3-1c42-16 89 1 111 41l1 3 0 1 1 1 1 1z" horiz-adv-x="1000" />

<glyph glyph-name="car-small" unicode="&#xe806;" d="M500 850c-276 0-500-224-500-500 0-276 224-500 500-500 276 0 500 224 500 500 0 276-224 500-500 500z m292-581c0-9-6-16-13-19-13 44-55 77-104 77-50 0-92-33-104-79h-142c-12 46-54 79-104 79-49 0-91-33-104-77-7 3-13 10-13 19v96c0 23 19 42 42 42h64l43 106c6 16 22 27 39 27h182c17 0 32-11 39-27l42-106h91c23 0 42-19 42-42v-96z m-167-21h0c10 17 28 29 50 29 3 0 7 0 10-1 27-4 48-28 48-57 0-32-26-59-58-59-32 0-58 27-58 59 0 10 3 20 8 29z m-290 28c27-4 48-28 48-57 0-32-26-59-58-59-32 0-58 27-58 59 0 10 3 20 8 29h0c10 17 28 29 50 29 3 0 7 0 10-1z m139 209c-14 0-25-11-25-25v-53c0-14 11-25 25-25h79c14 0 25 11 25 25 0 14-11 25-25 25h-54v28c0 14-12 25-25 25z" horiz-adv-x="1000" />

<glyph glyph-name="brand-facebook-f" unicode="&#xe807;" d="M500-150c-276 0-500 224-500 500 0 276 224 500 500 500 276 0 500-224 500-500 0-276-224-500-500-500z m142 569h-102v69c0 29 14 57 60 57h46v90c0 0-42 7-82 7-83 0-138-51-138-142v-81h-93v-105h93v-256h114v256h85l17 105z" horiz-adv-x="1000" />

<glyph glyph-name="angle-down" unicode="&#xe826;" d="M500 850c-276 0-500-224-500-500 0-276 224-500 500-500 276 0 500 224 500 500 0 276-224 500-500 500z m-143-393l143-143 143 143c13 13 34 13 47 0 13-13 13-34 0-47l-166-167c-13-13-35-13-48 0l-166 167c-13 13-13 34 0 47 13 13 34 13 47 0z" horiz-adv-x="1000" />

<glyph glyph-name="angle-right" unicode="&#xe827;" d="M0 350c0-276 224-500 500-500 276 0 500 224 500 500 0 276-224 500-500 500-276 0-500-224-500-500z m393-143l143 143-143 143c-13 13-13 34 0 47 13 13 34 13 47 0l167-166c13-13 13-34 0-48l-167-166c-13-13-34-13-47 0-13 13-13 34 0 47z" horiz-adv-x="1000" />

<glyph glyph-name="times" unicode="&#xe828;" d="M1000 350c0-276-224-500-500-500-276 0-500 224-500 500 0 276 224 500 500 500 276 0 500-224 500-500z m-695-203c16-15 41-15 56 0l150 150 149-150c16-15 41-15 56 0 16 16 16 41 0 56l-149 150 149 149c16 15 16 41 0 56-15 15-40 15-56 0l-149-149-150 149c-15 15-40 15-56 0-15-15-15-41 0-56l150-149-150-150c-15-15-15-40 0-56z" horiz-adv-x="1000" />

<glyph glyph-name="activity" unicode="&#xe854;" d="M500-150c276 0 500 224 500 500 0 276-224 500-500 500-276 0-500-224-500-500 0-276 224-500 500-500z m250 625v-250c0-69-56-125-125-125h-250c-69 0-125 56-125 125v250c0 69 56 125 125 125h250c69 0 125-56 125-125z m-206 4c-8 0-15-6-17-14l-37-162-28 87c-2 7-9 12-16 13-8 0-15-3-18-10l-29-53h-45c-10 0-19-9-19-19 0-10 9-19 19-19h49c12 0 22 6 27 16l10 18 35-110c2-8 10-14 19-13 8 0 15 6 17 14l38 165 24-69c4-12 16-21 29-21h44c10 0 19 9 19 19 0 10-9 19-19 19h-39l-44 127c-3 7-10 13-19 12z" horiz-adv-x="1000" />

<glyph glyph-name="question-triangle" unicode="&#xe855;" d="M500 850c-276 0-500-224-500-500 0-276 224-500 500-500 276 0 500 224 500 500 0 276-224 500-500 500z m-67-247c20 36 67 49 104 30 12-7 23-18 30-30l215-384c21-36 7-82-30-102-12-6-24-9-37-9h-430c-42 0-77 33-77 75 0 13 4 25 10 36l215 384z m88-375c0 14-11 25-25 25-13 0-24-11-24-25 0-13 11-24 24-24 14 0 25 11 25 24z m-21 185c3 0 6-1 8-2 2-1 4-2 5-3 2-1 3-2 3-4 1-1 1-3 2-7 0-5-2-12-11-23-2-2-5-5-7-7l-2-3 0 0c-3-2-4-4-6-5-4-4-8-10-12-15-4-6-7-13-9-20-2-8-3-16-3-24v-6c0-13 11-25 25-25 14 0 25 12 25 25v6c0 4 1 7 1 10 1 3 2 5 3 7 2 3 4 5 6 7 1 1 4 4 6 6l2 2c3 3 5 6 6 7l1 1 1 1c15 16 24 36 24 57-1 8-2 18-6 27-4 8-9 15-15 21-7 5-14 10-22 12-8 3-16 5-25 5-18 0-34-6-47-19-12-11-19-26-21-42-3-14 7-27 20-29 14-2 27 7 29 21 1 7 4 11 7 15 2 2 5 4 12 4z" horiz-adv-x="1000" />

<glyph glyph-name="align-center" unicode="&#xe856;" d="M500-150c276 0 500 224 500 500 0 276-224 500-500 500-276 0-500-224-500-500 0-276 224-500 500-500z m-208 533h416c19 0 34-15 34-33 0-18-15-33-34-33h-416c-19 0-34 15-34 33 0 18 15 33 34 33z m71 134c0 18 14 33 33 33h208c19 0 34-15 34-33 0-19-15-34-34-34h-208c-19 0-33 15-33 34z m33-300h208c19 0 34-15 34-34 0-18-15-33-34-33h-208c-19 0-33 15-33 33 0 19 14 34 33 34z" horiz-adv-x="1000" />

<glyph glyph-name="airplay" unicode="&#xe857;" d="M500 850c-276 0-500-224-500-500 0-276 224-500 500-500 276 0 500 224 500 500 0 276-224 500-500 500z m-281-371c0 63 51 115 114 115h334c63 0 114-52 114-115v-194c0-48-39-87-87-87-17 0-31 14-31 31 0 17 14 31 31 31 14 0 25 11 25 25v194c0 29-24 52-52 52h-334c-28 0-52-23-52-52v-194c0-14 11-25 25-25 17 0 31-14 31-31 0-17-14-31-31-31-48 0-87 39-87 87v194z m306-182l95-110c18-22 3-55-26-55h-188c-29 0-44 33-25 55l94 110c13 15 37 15 50 0z" horiz-adv-x="1000" />

<glyph glyph-name="align-justify" unicode="&#xe858;" d="M500-150c276 0 500 224 500 500 0 276-224 500-500 500-276 0-500-224-500-500 0-276 224-500 500-500z m-208 533h416c19 0 34-15 34-33 0-18-15-33-34-33h-416c-19 0-34 15-34 33 0 18 15 33 34 33z m-34 134c0 18 15 33 34 33h416c19 0 34-15 34-33 0-19-15-34-34-34h-416c-19 0-34 15-34 34z m34-300h416c19 0 34-15 34-34 0-18-15-33-34-33h-416c-19 0-34 15-34 33 0 19 15 34 34 34z" horiz-adv-x="1000" />

<glyph glyph-name="align-left" unicode="&#xe859;" d="M500-150c276 0 500 224 500 500 0 276-224 500-500 500-276 0-500-224-500-500 0-276 224-500 500-500z m-208 533h208c18 0 33-15 33-33 0-18-15-33-33-33h-208c-19 0-34 15-34 33 0 18 15 33 34 33z m-34 134c0 18 15 33 34 33h416c19 0 34-15 34-33 0-19-15-34-34-34h-416c-19 0-34 15-34 34z m34-300h416c19 0 34-15 34-34 0-18-15-33-34-33h-416c-19 0-34 15-34 33 0 19 15 34 34 34z" horiz-adv-x="1000" />

<glyph glyph-name="align-right" unicode="&#xe85a;" d="M500 850c-276 0-500-224-500-500 0-276 224-500 500-500 276 0 500 224 500 500 0 276-224 500-500 500z m208-533l-208 0c-18 0-33 15-33 33 0 18 15 33 33 33l208 0c19 0 34-15 34-33 0-18-15-33-34-33z m34-134c0-18-15-33-34-33h-416c-19 0-34 15-34 33 0 19 15 34 34 34l416 0c19 0 34-15 34-34z m-34 300l-416 0c-19 0-34 15-34 34 0 18 15 33 34 33l416 0c19 0 34-15 34-33 0-19-15-34-34-34z" horiz-adv-x="1000" />

<glyph glyph-name="anchor" unicode="&#xe85d;" d="M500 850c-276 0-500-224-500-500 0-276 224-500 500-500 276 0 500 224 500 500 0 276-224 500-500 500z m97-348c0-42-27-78-64-91v-275c80 14 144 78 158 159h-32c-18 0-33 15-33 33 0 18 15 33 33 33h68c18 0 33-15 33-33 0-144-116-261-260-261-144 0-260 117-260 261 0 18 15 33 33 33h67c19 0 34-15 34-33 0-18-15-33-34-33h-31c14-81 77-145 157-159v275c-37 13-63 49-63 91 0 54 43 98 97 98 54 0 97-44 97-98z" horiz-adv-x="1000" />

<glyph glyph-name="brand-aperture" unicode="&#xe85e;" d="M500 850c-276 0-500-224-500-500 0-276 224-500 500-500 276 0 500 224 500 500 0 276-224 500-500 500z m-195-305c47 48 108 74 170 80l-128-219-63 116c6 8 13 16 21 23z m-59-304c-31 73-30 157 5 228l70-128c1-3 2-5 4-7l51-93h-130z m59-86c-10 10-20 21-28 32h251l-64-111c-58 8-115 34-159 79z m391 0c-48-48-108-74-170-80l129 224 66-114c-7-11-16-21-25-30z m56 308c32-71 32-153 1-225l-130 225h129z m-277 54l61 107c59-8 115-34 160-79 8-8 17-18 24-28h-245z" horiz-adv-x="1000" />

<glyph glyph-name="arrow-left" unicode="&#xe85f;" d="M500 850c-276 0-500-224-500-500 0-276 224-500 500-500 276 0 500 224 500 500 0 276-224 500-500 500z m-142-533l110-110c13-13 13-34 0-47-13-13-34-13-47 0l-167 166c-3 4-5 7-7 11-2 4-3 8-3 13l0 0 0 0c0 5 1 9 3 13 2 4 4 7 7 11l167 166c13 13 34 13 47 0 13-13 13-34 0-47l-110-110h364c19 0 34-15 34-33 0-18-15-33-34-33h-364z" horiz-adv-x="1000" />

<glyph glyph-name="arrow-right" unicode="&#xe860;" d="M500 850c-276 0-500-224-500-500 0-276 224-500 500-500 276 0 500 224 500 500 0 276-224 500-500 500z m142-533h-364c-19 0-33 15-33 33 0 18 14 33 33 33h364l-110 110c-13 13-13 34 0 47 13 13 34 13 47 0l167-166c3-4 6-7 7-11 2-4 3-8 3-13l0 0 0 0c0-5-1-9-3-13-1-4-4-7-7-11l-167-166c-13-13-34-13-47 0-13 13-13 34 0 47l110 110z" horiz-adv-x="1000" />

<glyph glyph-name="arrow-down" unicode="&#xe861;" d="M0 350c0-276 224-500 500-500 276 0 500 224 500 500 0 276-224 500-500 500-276 0-500-224-500-500z m533-142l110 110c13 13 34 13 47 0 13-13 13-34 0-47l-166-167c-4-3-7-5-11-7-4-2-8-2-13-2l0 0 0 0c-5 0-9 0-13 2-4 2-7 4-10 7l-167 167c-13 13-13 34 0 47 13 13 34 13 47 0l110-110v364c0 19 15 34 33 34 18 0 33-15 33-34v-364z" horiz-adv-x="1000" />

<glyph glyph-name="arrow-up" unicode="&#xe864;" d="M1000 350c0 276-224 500-500 500-276 0-500-224-500-500 0-276 224-500 500-500 276 0 500 224 500 500z m-533 142l-110-110c-13-13-34-13-47 0-13 13-13 34 0 47l166 167c4 3 7 5 11 7 4 2 8 3 13 3 0 0 0 0 0 0 0 0 0 0 0 0 5 0 9-1 13-3 4-2 7-4 11-7l166-167c13-13 13-34 0-47-13-13-34-13-47 0l-110 110v-364c0-19-15-33-33-33-18 0-33 14-33 33v364z" horiz-adv-x="1000" />

<glyph glyph-name="award" unicode="&#xe865;" d="M405 416c0-60 47-108 106-108 58 0 105 48 105 108 0 59-47 108-105 108-59 0-106-49-106-108z m95 434c-276 0-500-224-500-500 0-276 224-500 500-500 276 0 500 224 500 500 0 276-224 500-500 500z m190-737c1-2 1-3 1-5 0-7-5-12-12-13l-2 0-51 2-38-35c-2-1-3-2-5-3-6-2-13 1-16 6l-1 2-36 102c1-1 3-1 4-2l3-1c42-16 89 1 111 41l1 3c1 2 3 4 4 6l37-103z m-318 97l2-3c21-40 68-57 110-41l3 1 5 2-37-102c-2-7-10-10-17-8-2 1-3 2-4 3l-38 35-52-2c-7 0-13 6-14 13 0 2 1 3 1 5l37 103c1-2 3-4 4-6z m168 422c1-1 2-2 3-3l3-2c19-17 45-27 71-26l3 0c25 0 46-18 50-43l1-4c4-24 15-45 33-62l5-4 2-2c19-16 24-44 11-66l0-1-2-2c-13-23-17-49-13-75l1-4c4-20-5-41-21-52l-4-2c-2-2-5-3-8-4l-2-1 0 0-1 0c-24-9-45-26-57-49l-2-3c-12-22-38-32-62-23l-3 1c-24 9-51 9-75 0l-3-1c-23-9-50 1-62 23l-1 3c-13 23-34 40-58 49l-1 0 0 0-2 1c-3 1-6 2-8 4l-4 2c-16 11-25 32-21 52l1 4c5 26 0 52-13 75l-2 2 0 1c-13 22-8 50 11 66l3 2c20 17 33 40 37 66l1 4c4 23 23 41 46 43l4 0 3 0c26-1 52 9 71 26l3 2c2 2 4 4 7 6 16 9 36 9 51 0l4-3z" horiz-adv-x="1000" />

<glyph glyph-name="at" unicode="&#xe867;" d="M500 850c-276 0-500-224-500-500 0-276 224-500 500-500 276 0 500 224 500 500 0 276-224 500-500 500z m-258-500c0-143 115-258 258-258 33 0 67 6 99 19 17 7 36-1 43-18 8-17-1-36-18-43-40-17-83-25-124-25-179 0-325 146-325 325 0 180 146 325 325 325 179 0 325-145 325-325v-49c0-68-56-124-124-124-47 0-88 26-109 64-25-21-57-34-92-34-79 0-143 64-143 143 0 79 64 143 143 143 79 0 143-64 143-143v-49c0-31 26-57 58-57 31 0 57 26 57 57v49c0 143-115 258-258 258-143 0-258-115-258-258z m258 76c-42 0-76-34-76-76 0-42 34-76 76-76 42 0 76 34 76 76 0 42-34 76-76 76z" horiz-adv-x="1000" />

<glyph glyph-name="chart-bar-v" unicode="&#xe868;" d="M500-150c276 0 500 224 500 500 0 276-224 500-500 500-276 0-500-224-500-500 0-276 224-500 500-500z m-281 333c0 18 14 32 31 32h21v328c0 17 14 31 31 31h60c17 0 31-14 31-31v-328h31v406c0 18 14 31 31 31h59c18 0 31-13 31-31v-406h31v250c0 17 14 31 31 31h60c17 0 31-14 31-31v-250h52c17 0 31-14 31-32 0-17-14-31-31-31h-500c-17 0-31 14-31 31z" horiz-adv-x="1000" />

<glyph glyph-name="battery" unicode="&#xe869;" d="M1000 350c0 276-224 500-500 500-276 0-500-224-500-500 0-276 224-500 500-500 276 0 500 224 500 500z m-240 26l-41 0c0 0 0 0 0 0v-47h41v47z m-41-110c-1-45-38-81-84-81h-192l118 148c7 9 9 22 4 33-6 11-16 17-28 17h-82l100 130h80c44 0 79-33 83-75 1 0 1 0 1 0l52 0c29 0 52-23 52-52v-68c0-28-23-52-52-52h-52c0 0 0 0 0 0z m-427-81c-46 0-84 37-84 83v162c0 46 38 83 84 83h184l-110-142c-7-9-9-22-3-32 5-11 16-18 28-18h81l-109-136h-71z" horiz-adv-x="1000" />

<glyph glyph-name="bell-slash" unicode="&#xe86a;" d="M500-150c276 0 500 224 500 500 0 276-224 500-500 500-276 0-500-224-500-500 0-276 224-500 500-500z m-196 760c6 6 13 9 21 9 0-8 3-15 8-21l58-61 337-346c6-6 14-10 23-9 0-9-4-17-10-23-12-12-32-12-44 0l-38 39h-332c-42 0-77 35-77 77 0 36 25 66 58 75l0 101c0 31 8 61 21 87l-26 28c-12 13-12 32 1 44z m442-335c0-4 0-8-1-12l-309 317-33 36c28 16 61 26 96 26 106 0 191-86 191-191l0-102c32-9 56-39 56-74z m-295-121l1-3 0 0c1-2 2-3 3-5 0-1 1-3 1-3 1-1 1-1 1-1l0-1 0 0c9-13 25-22 42-22 21 0 40 13 47 32 7 16 25 24 41 18 16-7 24-25 17-41-16-42-57-71-105-71-39 0-73 19-93 49-4 6-9 15-11 19l-1 2c-7 15-1 34 15 41 16 8 34 1 42-14z" horiz-adv-x="1000" />

<glyph glyph-name="battery-empty" unicode="&#xe86b;" d="M500-150c276 0 500 224 500 500 0 276-224 500-500 500-276 0-500-224-500-500 0-276 224-500 500-500z m149 621h-361c-10 0-23-10-23-27v-188c0-17 13-27 23-27h361c11 0 24 10 24 27v188c0 17-13 27-24 27z m-361 67h361c50 0 91-42 91-94v-188c0-51-41-93-91-93h-361c-50 0-90 42-90 93v188c0 52 40 94 90 94z m514-88c21 0 38-17 38-37v-125c0-21-17-38-38-38-21 0-37 17-37 38v125c0 20 16 37 37 37z" horiz-adv-x="1000" />

<glyph glyph-name="bluetooth" unicode="&#xe86c;" d="M500 850c-276 0-500-224-500-500 0-276 224-500 500-500 276 0 500 224 500 500 0 276-224 500-500 500z m26-226l127-125c6-6 10-15 10-24 0-9-4-17-10-24l-103-101 103-101c6-6 10-15 10-24 0-9-4-17-10-24l-127-125c-10-9-24-12-37-7-12 6-20 18-20 31v171l-71-70c-13-13-34-12-47 1-13 13-12 34 1 47l103 101-103 101c-13 13-14 34-1 47 13 14 34 14 47 1l71-70v171c0 13 8 26 20 31 13 5 27 2 37-7z m56-399l-46 46v-92l46 46z m-46 296v-92l46 46-46 46z" horiz-adv-x="1000" />

<glyph glyph-name="bell" unicode="&#xe86d;" d="M0 350c0-276 224-500 500-500 276 0 500 224 500 500 0 276-224 500-500 500-276 0-500-224-500-500z m500 250c95 0 172-77 172-172l0-92c30-8 51-35 51-67 0-38-31-69-70-69h-308c-39 0-70 31-70 69 0 33 22 60 52 68l0 91c0 95 78 172 173 172z m-45-441l1-2c2-5 4-8 5-10 9-12 23-20 39-20 20 0 37 12 44 30 5 14 21 20 35 15 14-6 20-21 15-35-15-38-51-64-94-64-35 0-65 17-83 44-4 5-8 13-10 17l-1 2c-6 13 0 29 13 36 13 6 30 1 36-13z" horiz-adv-x="1000" />

<glyph glyph-name="book" unicode="&#xe86e;" d="M402 494c-15 0-27-12-27-27 0-15 12-27 27-27h189c15 0 27 12 27 27 0 15-12 27-27 27h-189z m-27-115c0-15 12-27 27-27h189c15 0 27 12 27 27 0 15-12 27-27 27h-189c-15 0-27-12-27-27z m125 471c-276 0-500-224-500-500 0-276 224-500 500-500 276 0 500 224 500 500 0 276-224 500-500 500z m-125-208h329c23 0 42-19 42-42v-313c-3 0-7 1-10 1h-398c-33 0-64-12-88-31v260c0 69 56 125 125 125z m-125-496v0c0 49 39 87 88 87h398c5 0 9-4 8-10-10-53-13-78-9-110l0-1c2-13 5-26 9-43 1-6-3-11-9-11h-397c-11 0-22 2-31 6-33 12-57 44-57 82z" horiz-adv-x="1000" />

<glyph glyph-name="briefcase" unicode="&#xe86f;" d="M500 850c-276 0-500-224-500-500 0-276 224-500 500-500 276 0 500 224 500 500 0 276-224 500-500 500z m84-347c-3 32-30 56-62 56h-44c-32 0-59-24-62-56h168z m83 0c46 0 83-37 83-83v-223c0-46-37-83-83-83h-334c-46 0-83 37-83 83v223c0 46 37 83 83 83h29c3 61 54 110 116 110h44c62 0 113-49 116-110h29z m-251-111c0 15-12 27-27 27-15 0-27-12-27-27v-173c0-15 12-27 27-27 15 0 27 12 27 27v173z m222 0c0 15-12 27-27 27-15 0-27-12-27-27v-173c0-15 12-27 27-27 15 0 27 12 27 27v173z" horiz-adv-x="1000" />

<glyph glyph-name="camera-slash" unicode="&#xe870;" d="M500 850c-276 0-500-224-500-500 0-276 224-500 500-500 276 0 500 224 500 500 0 276-224 500-500 500z m-272-260c12 12 32 12 44 0l478-478c12-12 12-32 0-44-12-12-32-12-44 0l-58 58h-304c-52 0-94 42-94 94v177c0 35 19 65 46 81l-68 68c-12 12-12 32 0 44z m272-316c-12 0-24 4-34 14-9 9-14 22-14 34l-51 51c-21-42-14-94 21-129 35-35 87-42 129-21l-51 51z m110 42c2 31-8 62-32 86-23 24-55 35-86 33l-107 106c11 21 32 34 56 34h117c24 0 46-13 56-35l25-49h17c52 0 94-42 94-94v-177c0-13-3-25-7-37l-133 133z" horiz-adv-x="1000" />

<glyph glyph-name="bookmark" unicode="&#xe872;" d="M500 850c-276 0-500-224-500-500 0-276 224-500 500-500 276 0 500 224 500 500 0 276-224 500-500 500z m-179-714v393c0 39 32 71 71 71h215c39 0 71-32 71-71v-393c0-27-26-45-48-32-53 32-131 79-131 79 0 0-77-47-130-79-22-13-48 5-48 32z" horiz-adv-x="1000" />

<glyph glyph-name="cube" unicode="&#xe873;" d="M500-150c276 0 500 224 500 500 0 276-224 500-500 500-276 0-500-224-500-500 0-276 224-500 500-500z m260 383c0-21-11-40-29-50l-202-117c-1 0-1-1-2-1v270c2 1 5 2 7 3l226 128v-233z m-29 284c2-1 3-2 5-3l-229-129c-4-2-10-2-14 0l-226 131c0 0 1 1 2 1l202 117c18 10 40 10 58 0l202-117z m-265-178c2-2 4-3 7-4v-270c-1 0-1 1-2 1l-202 117c-18 10-29 29-29 50v234c0 1 0 1 0 2l226-130z" horiz-adv-x="1000" />

<glyph glyph-name="checkbox" unicode="&#xe875;" d="M0 350c0-276 224-500 500-500 276 0 500 224 500 500 0 276-224 500-500 500-276 0-500-224-500-500z m742 177c12-12 12-32 0-44l-178-178c-37-37-96-37-133 0l-67 66c-12 13-12 32 0 45 12 12 32 12 44 0l67-67c13-12 32-12 45 0l178 178c12 12 32 12 44 0z m-388 104h146c17 0 31-14 31-31 0-17-14-31-31-31h-146c-40 0-73-33-73-73v-292c0-40 33-73 73-73h292c40 0 73 33 73 73v102c0 17 14 31 31 31 17 0 31-14 31-31v-102c0-75-60-135-135-135h-292c-75 0-135 60-135 135v292c0 75 60 135 135 135z" horiz-adv-x="1000" />

<glyph glyph-name="check" unicode="&#xe876;" d="M500 850c-276 0-500-224-500-500 0-276 224-500 500-500 276 0 500 224 500 500 0 276-224 500-500 500z m232-399l-287-286c-13-13-34-13-47 0l-130 130c-13 13-13 34 0 47 13 13 34 13 47 0l107-106 263 263c13 13 34 13 47 0 13-13 13-35 0-48z" horiz-adv-x="1000" />

<glyph glyph-name="cast" unicode="&#xe878;" d="M0 350c0-276 224-500 500-500 276 0 500 224 500 500 0 276-224 500-500 500-276 0-500-224-500-500z m229 142c0 60 48 108 108 108h351c63 0 114-51 114-114l0-251c0-63-51-114-114-114l-87 0c-18-1-32 13-32 31 0 17 14 31 32 31l87 0c28 0 52 24 52 52l0 251c0 29-24 52-52 52h-351c-25 0-46-21-46-46l-31 0h31v-15c0-17-14-31-31-31-17 0-31 14-31 31v15 0z m31-170c50 0 93-15 124-46 31-32 47-75 47-124 0-17-14-31-32-31-17 0-31 14-31 31 0 36-11 62-28 79-18 18-44 29-80 29-17 0-31 14-31 31 0 17 14 31 31 31z m-31 62c0 17 14 31 31 31 78 0 148-24 198-71 51-46 81-113 81-192 0-17-14-31-31-31-17 0-31 14-31 31 0 63-24 112-61 146-37 34-91 55-156 55-17 0-31 14-31 31z m40-251c-22 0-40 18-40 40 0 23 18 41 40 41 23 0 41-18 41-41 0-22-18-40-41-40z" horiz-adv-x="1000" />

<glyph glyph-name="angle-up" unicode="&#xe87c;" d="M500-150c276 0 500 224 500 500 0 276-224 500-500 500-276 0-500-224-500-500 0-276 224-500 500-500z m143 393l-143 143-143-143c-13-13-34-13-47 0-13 13-13 34 0 47l167 167c13 13 34 13 47 0l166-167c13-13 13-34 0-47-13-13-34-13-47 0z" horiz-adv-x="1000" />

<glyph glyph-name="angle-double-down" unicode="&#xe87d;" d="M0 350c0-276 224-500 500-500 276 0 500 224 500 500 0 276-224 500-500 500-276 0-500-224-500-500z m657-10c13-13 13-34 0-47l-133-133c-13-13-35-13-48 0l-133 133c-13 13-13 34 0 47 13 13 34 13 47 0l110-109 110 109c13 13 34 13 47 0z m0 128l-133-133c-13-13-35-13-48 0l-133 133c-13 13-13 34 0 47 13 13 34 13 47 0l110-109 110 109c13 13 34 13 47 0 13-13 13-34 0-47z" horiz-adv-x="1000" />

<glyph glyph-name="angle-double-right" unicode="&#xe87e;" d="M500-150c276 0 500 224 500 500 0 276-224 500-500 500-276 0-500-224-500-500 0-276 224-500 500-500z m10 657c13 13 34 13 47 0l133-133c13-13 13-35 0-48l-133-133c-13-13-34-13-47 0-13 13-13 34 0 47l110 110-110 110c-13 13-13 34 0 47z m-128 0l133-133c13-13 13-35 0-48l-133-133c-13-13-34-13-47 0-13 13-13 34 0 47l110 110-110 110c-13 13-13 34 0 47 13 13 34 13 47 0z" horiz-adv-x="1000" />

<glyph glyph-name="angle-double-up" unicode="&#xe87f;" d="M1000 350c0 276-224 500-500 500-276 0-500-224-500-500 0-276 224-500 500-500 276 0 500 224 500 500z m-657 10c-13 13-13 34 0 47l133 133c13 13 35 13 48 0l133-133c13-13 13-34 0-47-13-13-34-13-47 0l-110 110-110-110c-13-13-34-13-47 0z m0-128l133 133c13 13 35 13 48 0l133-133c13-13 13-34 0-47-13-13-34-13-47 0l-110 110-110-110c-13-13-34-13-47 0-13 13-13 34 0 47z" horiz-adv-x="1000" />

<glyph glyph-name="angle-double-left" unicode="&#xe880;" d="M500 850c-276 0-500-224-500-500 0-276 224-500 500-500 276 0 500 224 500 500 0 276-224 500-500 500z m-10-657c-13-13-34-13-47 0l-133 133c-13 14-13 35 0 48l133 133c13 13 34 13 47 0 13-13 13-34 0-47l-109-110 109-110c13-13 13-34 0-47z m128 0l-133 133c-13 14-13 35 0 48l133 133c13 13 34 13 47 0 13-13 13-34 0-47l-109-110 109-110c13-13 13-34 0-47-13-13-34-13-47 0z" horiz-adv-x="1000" />

<glyph glyph-name="circle" unicode="&#xe881;" d="M500-150c276 0 500 224 500 500 0 276-224 500-500 500-276 0-500-224-500-500 0-276 224-500 500-500z m0 208c-161 0-292 131-292 292 0 161 131 292 292 292 161 0 292-131 292-292 0-161-131-292-292-292z" horiz-adv-x="1000" />

<glyph glyph-name="clipboard" unicode="&#xe882;" d="M500-150c276 0 500 224 500 500 0 276-224 500-500 500-276 0-500-224-500-500 0-276 224-500 500-500z m-81 750l7 13c9 18 30 29 52 29h44c22 0 43-11 53-29l7-13c3-6 10-10 18-10h17c16 0 29-12 29-26v-10-16c0-14-13-26-29-26h-234c-16 0-29 12-29 26v26c0 14 13 26 29 26h17c8 0 15 4 19 10z m-106-48v-14c0-42 36-68 70-68h234c34 0 71 26 71 68v14c26-7 45-32 45-60v-371c0-35-28-63-62-63h-342c-34 0-62 28-62 63v371c0 28 19 53 46 60z m50-341c0-11 9-21 20-21h234c11 0 21 10 21 21 0 12-10 21-21 21h-234c-11 0-20-9-20-21z m20 147c-11 0-20-9-20-20 0-12 9-21 20-21h234c11 0 21 9 21 21 0 11-10 20-21 20h-234z" horiz-adv-x="1000" />

<glyph glyph-name="brand-chrome" unicode="&#xe883;" d="M500 850c-276 0-500-224-500-500 0-276 224-500 500-500 276 0 500 224 500 500 0 276-224 500-500 500z m2-776l125 205 0 1c33 56 27 129-17 180l147 0c39-102 18-221-64-303-53-53-122-80-191-83z m-145 206c7-12 15-23 25-32 37-37 88-52 136-44l-77-125c-55 10-107 36-149 78-89 88-107 220-55 326l120-203z m202 155l5-5 5-5c35-40 33-101-5-139-40-40-104-40-144 0-40 40-40 104 0 144 20 20 46 30 72 30l2 0c23 0 46-9 65-25z m170 79l-241 0c-39-1-77-16-106-46-18-17-30-38-38-60l-74 126c6 9 14 17 22 25 110 110 290 110 401 0 14-14 26-29 36-45z" horiz-adv-x="1000" />

<glyph glyph-name="clock" unicode="&#xe884;" d="M500 850c-276 0-500-224-500-500 0-276 224-500 500-500 276 0 500 224 500 500 0 276-224 500-500 500z m0-792c-161 0-292 131-292 292 0 161 131 292 292 292 161 0 292-131 292-292 0-161-131-292-292-292z m0 426c-14 0-25-11-25-25v-141c0-14 11-25 25-25h109c14 0 25 11 25 25 0 13-11 25-25 25h-84v116c0 14-11 25-25 25z" horiz-adv-x="1000" />

<glyph glyph-name="cloud-lightning" unicode="&#xe885;" d="M500 850c-276 0-500-224-500-500 0-276 224-500 500-500 276 0 500 224 500 500 0 276-224 500-500 500z m-74-296c-91 0-163-72-163-156 0-46 21-87 55-116 14-12 16-33 4-47-12-14-33-16-47-4-48 40-79 100-79 167 0 124 105 222 230 222 97 0 182-57 215-141 2 0 5 0 7 0 86 0 156-66 156-152 0-34-11-65-31-91-11-14-32-17-46-6-15 11-18 32-6 47 10 14 17 31 17 50 0 47-38 85-90 85-5 0-11-1-22-4-9-2-18 0-25 4-8 5-13 13-15 21-16 69-81 121-160 121z m99-187c16-9 21-29 11-45l-37-63h61c12 0 23-6 29-17 6-10 6-23 0-33l-68-113c-9-16-30-21-46-11-15 9-21 30-11 45l37 63h-61c-12 0-23 6-29 17-6 10-6 23 0 33l68 113c9 16 30 21 46 11z" horiz-adv-x="1000" />

<glyph glyph-name="cloud-drizzle" unicode="&#xe886;" d="M500 850c-276 0-500-224-500-500 0-276 224-500 500-500 276 0 500 224 500 500 0 276-224 500-500 500z m-237-448c0-46 21-88 55-117 14-11 16-32 4-47-12-14-33-15-47-4-48 41-79 101-79 168 0 124 105 222 230 222 97 0 182-57 215-142 2 0 5 1 7 1 86 0 156-66 156-152 0-34-11-66-31-91-11-15-32-17-46-6-15 11-18 32-6 47 10 14 17 31 17 50 0 47-38 85-90 85-5 0-11-1-22-4-9-2-18-1-25 4-8 5-13 12-15 21-16 69-81 121-160 121-91 0-163-72-163-156z m285-142v-30c0-19-14-34-33-34-18 0-33 15-33 34v30c0 18 15 33 33 33 19 0 33-15 33-33z m-153 93c18 0 33-15 33-33v-30c0-18-15-33-33-33-19 0-34 15-34 33v30c0 18 15 33 34 33z m274-33v-30c0-18-15-33-34-33-18 0-33 15-33 33v30c0 18 15 33 33 33 19 0 34-15 34-33z m-154-147c19 0 33-15 33-34v-30c0-18-14-33-33-33-18 0-33 15-33 33v30c0 19 15 34 33 34z m-87 27v-30c0-19-15-34-33-34-19 0-34 15-34 34v30c0 18 15 33 34 33 18 0 33-15 33-33z m207 33c19 0 34-15 34-33v-30c0-19-15-34-34-34-18 0-33 15-33 34v30c0 18 15 33 33 33z" horiz-adv-x="1000" />

<glyph glyph-name="cloud-slash" unicode="&#xe888;" d="M1000 350c0 276-224 500-500 500-276 0-500-224-500-500 0-276 224-500 500-500 276 0 500 224 500 500z m-814 203c12 12 32 12 44 0l445-445c12-12 12-32 0-44-12-12-32-12-44 0l-90 90h-132c-111 0-201 90-201 201 0 37 11 72 29 102l-51 52c-12 12-12 32 0 44z m523-392l-378 378c27 13 58 19 90 19 100 0 185-66 206-157 11 2 22 5 32 5 74 0 133-56 133-127 0-54-35-100-83-118z" horiz-adv-x="1000" />

<glyph glyph-name="cloud-download" unicode="&#xe889;" d="M500 850c-276 0-500-224-500-500 0-276 224-500 500-500 276 0 500 224 500 500 0 276-224 500-500 500z m-292-554c0 74 55 134 126 144 24 69 89 118 166 118 97 0 175-78 175-175 64 0 117-52 117-116 0-65-53-117-117-117h-321c-80 0-146 65-146 146z m210 38c-11-10-11-27 0-38l63-63c8-8 21-10 31-5 3 1 5 3 8 6l62 62c11 11 11 28 0 38-10 11-27 11-38 0l-17-16v80c0 15-12 27-27 27-15 0-27-12-27-27v-81l-17 17c-11 11-28 11-38 0z" horiz-adv-x="1000" />

<glyph glyph-name="sidebar" unicode="&#xe8a0;" d="M1000 350c0 276-224 500-500 500-276 0-500-224-500-500 0-276 224-500 500-500 276 0 500 224 500 500z m-507 227h195c57 0 104-47 104-104v-245c0-58-47-105-104-105h-195v454z m-50 0v-454h-130c-58 0-105 47-105 105v245c0 57 47 104 105 104h130z m-176-178c0-13 10-24 23-25 1 0 1 0 2 0h65c13 0 25 11 25 25 0 13-11 24-24 25 0 0-1 0-1 0h-65c-14 0-25-11-25-25z m23-122c1 0 1 0 2 0h65c13 0 25 11 25 25 0 13-11 24-24 25 0 0-1 0-1 0h-65c-14 0-25-12-25-25 0-14 10-24 23-25z" horiz-adv-x="1000" />

<glyph glyph-name="bell-plus" unicode="&#xe8a5;" d="M500 850c-276 0-500-224-500-500 0-276 224-500 500-500 276 0 500 224 500 500 0 276-224 500-500 500z m118-181c15 0 27-12 27-27v-32h31c15 0 27-12 27-27 0-15-12-27-27-27h-31v-31c0-15-12-27-27-27-15 0-27 12-27 27v31l-31 0c-15 0-27 12-27 27 0 15 12 27 27 27h31v32c0 15 12 27 27 27z m0-202c29 0 56 11 77 29 5-18 7-36 7-56l0-106c34-10 59-41 59-78 0-45-36-81-81-81h-360c-45 0-81 36-81 81 0 38 26 69 61 78l0 106c0 112 90 202 201 202 5 0 10 0 16-1-10-17-16-37-16-58 0-64 53-116 117-116z m-173-342l1-2 0 0c3-6 5-10 6-12 11-15 29-26 49-26 25 0 47 16 55 38 6 14 22 20 36 15 13-6 20-21 15-35-17-42-58-72-106-72-39 0-73 20-93 49-5 6-9 15-11 20l-1 2c-6 13-1 29 13 36 13 6 29 1 36-13z" horiz-adv-x="1000" />

<glyph glyph-name="angle-left" unicode="&#xe8ab;" d="M1000 350c0 276-224 500-500 500-276 0-500-224-500-500 0-276 224-500 500-500 276 0 500 224 500 500z m-393 143l-143-143 143-143c13-13 13-34 0-47-13-13-34-13-47 0l-167 166c-13 13-13 35 0 48l167 166c13 13 34 13 47 0 13-13 13-34 0-47z" horiz-adv-x="1000" />

<glyph glyph-name="cloud" unicode="&#xe945;" d="M500 850c-276 0-500-224-500-500 0-276 224-500 500-500 276 0 500 224 500 500 0 276-224 500-500 500z m-292-554c0 74 55 134 126 144 24 69 89 118 166 118 97 0 175-78 175-175 64 0 117-52 117-116 0-65-53-117-117-117h-321c-80 0-146 65-146 146z" horiz-adv-x="1000" />

<glyph glyph-name="bold" unicode="&#xe94a;" d="M500-150c276 0 500 224 500 500 0 276-224 500-500 500-276 0-500-224-500-500 0-276 224-500 500-500z m-167 792h209c92 0 166-75 166-167 0-41-14-78-39-107 49-29 81-82 81-143 0-92-75-167-167-167h-250c-23 0-41 19-41 42v500c0 23 18 42 41 42z m42-500h208c46 0 84 37 84 83 0 46-38 83-84 83h-208v-166z m0 250v166h167c46 0 83-37 83-83 0-46-37-83-83-83h-167z" horiz-adv-x="1000" />

<glyph glyph-name="users" unicode="&#xe95d;" d="M500-150c276 0 500 224 500 500 0 276-224 500-500 500-276 0-500-224-500-500 0-276 224-500 500-500z m67 539c-36-37-96-37-133 0-36 37-36 96 0 133 37 36 97 36 133 0 37-37 37-96 0-133z m161 71c25-25 25-66 0-91-25-25-66-25-91 0-25 25-25 66 0 91 25 25 66 25 91 0z m-227-123c40 0 77-6 112-20 37-15 62-51 62-91l0-16c1-29-18-55-46-63-35-10-77-15-128-15-51 0-93 5-128 15-28 8-47 34-47 63l1 16c0 40 25 76 62 91 35 14 72 20 112 20z m197-118c6 40-18 84-55 106h59c46 0 84-34 90-79 1-16-12-27-25-27h-69z m-340 241c25-25 25-66 0-91-25-25-66-25-91 0-25 25-25 66 0 91 25 25 66 25 91 0z m-1-135c-37-22-61-66-55-106h-69c-13 0-26 11-24 27 5 45 43 79 89 79h59z" horiz-adv-x="1000" />

<glyph glyph-name="comment-activity" unicode="&#xe967;" d="M500 850c-276 0-500-224-500-500 0-276 224-500 500-500 276 0 500 224 500 500 0 276-224 500-500 500z m-91-691h-76c-69 0-125 56-125 125v191c0 69 56 125 125 125h334c69 0 125-56 125-125v-191c0-69-56-125-125-125h-76l-62-93c-14-22-44-22-58 0l-62 93z m130 338c-12 0-23-9-25-21l-25-108-13 41c-3 11-12 18-23 19-11 1-21-4-27-14l-22-43h-34c-15 0-27-12-27-27 0-15 12-27 27-27h44c12 0 23 6 30 15l24-77c3-12 14-20 27-19 12 0 22 9 25 21l25 113 10-27c5-16 19-26 36-26h39c15 0 27 12 27 27 0 15-12 27-27 27h-28l-36 108c-4 12-15 19-27 18z" horiz-adv-x="1000" />

<glyph glyph-name="book-open" unicode="&#xe96f;" d="M500 850c-276 0-500-224-500-500 0-276 224-500 500-500 276 0 500 224 500 500 0 276-224 500-500 500z m125-292c69 0 125-29 125-66v-328c0-18-22-27-36-16-22 17-51 33-89 33-43 0-76-21-98-40v278c0 15-12 28-27 28-15 0-27-13-27-28v-271c-22 21-50 33-98 33-31 0-60-14-82-29-16-11-43 0-43 19v321c0 37 56 66 125 66 69 0 125-29 125-66 0 37 56 66 125 66z" horiz-adv-x="1000" />

<glyph glyph-name="certificate" unicode="&#xe975;" d="M500-150c276 0 500 224 500 500 0 276-224 500-500 500-276 0-500-224-500-500 0-276 224-500 500-500z m-167 708h333c45 0 83-37 83-83v-249c0-46-38-83-83-83h-100c38 25 63 67 63 116 0 77-62 139-139 139-76 0-138-62-138-139 0-49 25-91 63-116h-82c-46 0-83 37-83 83v249c0 46 37 83 83 83z m258-299c0-42-26-79-63-93v-84c0-11-12-19-23-15l-21 7-20-7c-11-4-23 4-23 15v89c-31 18-51 51-51 88 0 56 45 101 100 101 56 0 101-45 101-101z" horiz-adv-x="1000" />

<glyph glyph-name="box" unicode="&#xe976;" d="M0 350c0-276 224-500 500-500 276 0 500 224 500 500 0 276-224 500-500 500-276 0-500-224-500-500z m771 135c0-23-19-41-42-41h-458c-23 0-42 18-42 41v53c0 23 19 41 42 41h458c23 0 42-18 42-41v-53z m-33-310c0-46-37-83-83-83h-310c-46 0-83 37-83 83v242h476v-242z m-338 128c0-15 12-27 27-27h146c15 0 27 12 27 27 0 15-12 27-27 27h-146c-15 0-27-12-27-27z" horiz-adv-x="1000" />

<glyph glyph-name="browser-code" unicode="&#xe977;" d="M1000 350c0 276-224 500-500 500-276 0-500-224-500-500 0-276 224-500 500-500 276 0 500 224 500 500z m-667 292h334c69 0 125-56 125-125v-9h-584v9c0 69 56 125 125 125z m-125-459v271h584v-271c0-69-56-125-125-125h-334c-69 0-125 56-125 125z m337 161c3 15-6 29-21 32-14 4-29-5-32-20l-37-163c-3-15 6-29 21-33 15-3 29 6 32 21l37 163z m39-16c-11-10-11-27 0-38l22-22-22-21c-11-11-11-28 0-39 10-10 28-10 38 0l41 41c11 11 11 28 0 39l-41 40c-10 11-28 11-38 0z m-168-38c11 11 11 28 0 38-10 11-27 11-38 0l-41-40c-10-11-10-28 0-39l41-41c11-10 28-10 38 0 11 11 11 28 0 39l-21 21 21 22z m-98 254c12 0 22 10 22 22 0 12-10 22-22 22-12 0-22-10-22-22 0-12 10-22 22-22z m80 22c0 12-10 22-22 22-12 0-22-10-22-22 0-12 10-22 22-22 12 0 22 10 22 22z" horiz-adv-x="1000" />

<glyph glyph-name="comment" unicode="&#xe979;" d="M500-150c276 0 500 224 500 500 0 276-224 500-500 500-276 0-500-224-500-500 0-276 224-500 500-500z m-290 560c12 98 101 169 200 169h187c110 0 198-90 195-200-4-107-96-189-203-189h-83c-17-17-39-38-61-60-11-11-22-23-32-33-10-10-28-3-28 11v83c-107 10-189 107-175 219z" horiz-adv-x="1000" />

<glyph glyph-name="file-attach" unicode="&#xe980;" d="M500 850c-276 0-500-224-500-500 0-276 224-500 500-500 276 0 500 224 500 500 0 276-224 500-500 500z m143-229c-50 0-91-40-90-90l0-1 0 0-3-146c0-11-10-20-21-20-12 0-21 10-21 21l3 146c0 73 59 132 132 132l0 0c73-1 132-60 133-133l0-1 0 0-3-145c0-53-42-95-95-95-52 0-95 43-95 95l0 1 0 0 2 146c0 32 26 58 58 57 32 0 58-26 58-58l0 0 0 0-2-128c-1-11-10-20-22-20-11 0-20 10-20 21l3 127c0 9-8 17-17 17-9 0-16-7-16-16l0-1 0 0-3-146c1-29 25-53 54-53 30 0 53 23 53 53l0 0 0 0 3 146c0 50-41 91-91 91h0z m-160-72v-185c0-28 42-56 70-14 0-22 41-104 141-86v-108c0-54-43-98-97-98h-250c-53 0-97 44-97 98v361c0 53 44 97 97 97h125 28c-11-20-17-42-17-65z" horiz-adv-x="1000" />

<glyph glyph-name="attach" unicode="&#xe9e6;" d="M500 850c-276 0-500-224-500-500 0-276 224-500 500-500 276 0 500 224 500 500 0 276-224 500-500 500z m207-382c0 49-40 89-88 89-47 0-86-39-86-88l0 0-3-144c0-12-10-22-22-21-11 0-21 10-21 21l3 144c0 73 58 131 130 131 72 0 130-59 130-132l0 0-3-144c1-52-41-95-93-94-52 0-94 43-94 95l0 0 2 144c1 32 26 58 58 58 32 0 58-27 58-58l0-1-3-126c0-12-10-21-22-21-12 1-21 10-21 22l3 126c0 8-7 15-15 15-8 0-15-6-15-15l0 0-2-144c0-29 23-52 51-52 28-1 51 22 51 51l0 0 2 144z m-220 103c-22-28-34-63-34-101l-3-144c0-32 25-59 58-60 9 0 18 2 26 6 20-46 66-79 120-80 34 0 65 13 88 34v-29c0-52-42-95-94-95h-304c-52 0-94 43-94 95v280c0 52 42 94 94 94h143z" horiz-adv-x="1000" />

<glyph glyph-name="upload" unicode="&#xe9e8;" d="M500 850c-276 0-500-224-500-500 0-276 224-500 500-500 276 0 500 224 500 500 0 276-224 500-500 500z m151-375c13-13 13-34 0-47-13-13-34-13-47 0l-71 71v-225c0-19-15-34-33-34-18 0-33 15-33 34v225l-71-71c-13-13-34-13-47 0-13 13-13 34 0 47l126 127c7 6 15 11 25 11 1 0 2-1 3-1 8 0 15-3 21-9l127-128z m45-201c0 18 15 33 33 33 19 0 34-15 34-33v-102c0-47-38-84-85-84h-356c-47 0-84 37-84 84v102c0 18 14 33 33 33 18 0 33-15 33-33v-102c0-10 8-18 18-18h356c10 0 18 8 18 18v102z" horiz-adv-x="1000" />

<glyph glyph-name="thumbtack-star" unicode="&#xe9e9;" d="M620 586c-2 6-10 6-12 0l-15-31c-1-2-3-4-5-4l-34-5c-6-1-8-8-4-12l25-25c1-2 2-4 2-6l-6-36c-1-5 5-10 10-7l30 16c2 1 4 1 6 0l30-16c5-3 11 2 10 7l-6 36c0 2 1 4 2 6l25 25c4 4 1 11-4 12l-34 5c-2 0-4 2-5 4l-15 31z m380-236c0 276-224 500-500 500-276 0-500-224-500-500 0-276 224-500 500-500 276 0 500 224 500 500z m-543 169c0-86 70-157 157-157 7 0 15 1 22 2 43-30 69-75 77-133l2-9c1-15-10-27-24-27l-188 0 0-123c0-13-11-24-25-24-12 0-22 9-23 21l-1 3 0 123-180 0c-14 0-25 12-24 27l1 9c11 69 45 119 103 147l2 1 10 214-42 1c-13 0-24 10-24 24 0 12 9 22 21 23l3 1 191 0c-36-29-58-73-58-123z m157 116c64 0 115-52 115-116 0-63-51-115-115-115-64 0-115 52-115 115 0 64 51 116 115 116z" horiz-adv-x="1000" />

<glyph glyph-name="brand-bunnynet" unicode="&#xe9ea;" d="M1000 350c0 276-224 500-500 500-276 0-500-224-500-500 0-276 224-500 500-500 276 0 500 224 500 500z m-526-333c0 0 0 0-1 0-2 0-4 1-6 4-16 15-32 30-48 45-35 32-69 64-100 101-52 64-58 121-20 183 39 62 111 90 184 73 21-5 40-15 59-24l3-2c37-18 79 2 90 42 5 21 1 31-20 36-26 6-53 10-79 14-5 1-9 2-14 3-26 4-52 9-76 17-56 19-94 79-86 131 2 14 5 18 20 11 86-47 172-94 258-141 52-28 105-56 157-85 23-13 23-30 0-44-27-16-56-28-87-35-11-3-17-8-22-18-28-59-57-117-86-176-16-33-56-47-103-36 6 6 11 11 16 16l0 0c11 12 22 23 31 35 39 48 29 112-22 144-36 23-85 17-116-14-31-30-37-77-15-114 11-20 27-35 44-50 14-13 28-26 41-40 18-20 19-49 6-70-3-4-5-6-8-6z m87 661l129-180-33 18c-36 20-71 40-106 59-6 3-9 7-11 13-10 30-7 60 8 88l0 0c3 6 6 12 13 2z m-53-449c0-19-15-35-35-34-20 0-36 17-35 37 0 18 17 34 36 34 19-1 35-17 34-37z m-223 190l0-38h-38c-21 0-39 17-39 38 0 21 18 39 39 39 21 0 38-18 38-39z" horiz-adv-x="1000" />

<glyph glyph-name="hand-pointer" unicode="&#xe9ec;" d="M1000 350c0 276-224 500-500 500-276 0-500-224-500-500 0-276 224-500 500-500 276 0 500 224 500 500z m-700-2l51-58c5-6 15-3 15 5v337c0 28 21 51 47 51 26 0 47-23 47-51v-145c0 28 21 51 47 51 26 0 47-23 47-51v-34c0 28 21 51 47 51 26 0 47-23 47-51l0-26c0 28 21 51 47 51 26 0 47-23 47-51v-248c0-111-103-162-201-162-98 0-158 77-158 77l-162 188c-19 22-16 54 6 72 21 18 53 15 71-5 1 0 1-1 2-1z" horiz-adv-x="1000" />

<glyph glyph-name="image-plus" unicode="&#xe9ed;" d="M500 850c-275 0-500-225-500-500 0-275 225-500 500-500 275 0 500 225 500 500 0 275-225 500-500 500z m-154-717c-67 0-117 55-117 125v192c0 67 54 125 117 125h271c66 0 116-54 116-125v-142c-12 5-29 13-50 13v129c0 42-29 75-75 75h-262c-38 0-75-33-75-75v-96l21 25c25 25 66 25 91 0l75-75c13-12 30-12 46 0l38 34c21 20 54 20 75 0l29-25c-38-17-67-59-67-105 0-29 13-54 29-75h-262z m217 309c0-34-25-59-59-59-29 0-58 25-58 59 0 33 25 58 58 58 34 0 59-25 59-58z m191-259h-37v-37c0-13-13-21-21-21-8 0-17 8-17 21v37h-37c-13 0-21 9-21 21 0 13 8 21 21 21h37v38c0 12 4 20 17 20 12 0 21-8 21-20v-38h37c9 0 17-8 17-21 0-12-4-21-17-21z" horiz-adv-x="1000" />

<glyph glyph-name="minimize" unicode="&#xe9ee;" d="M500 850c276 0 500-224 500-500 0-276-224-500-500-500-276 0-500 224-500 500 0 276 224 500 500 500z m-292-676c0-46 38-83 84-83h416c46 0 84 37 84 83v352c0 46-38 83-84 83h-416c-46 0-84-37-84-83v-352z m65 15v63c0 10 8 17 17 17h420c9 0 17-7 17-17v-63c0-10-8-17-17-17h-420c-9 0-17 7-17 17z" horiz-adv-x="1000" />

<glyph glyph-name="spinner-alt" unicode="&#xe9ef;" d="M0 350c0-276 224-500 500-500 276 0 500 224 500 500 0 276-224 500-500 500-276 0-500-224-500-500z m685 207c-16-30-54-41-85-24-40 22-86 30-131 23-45-7-87-28-119-61-31-33-51-75-57-120-5-46 4-92 28-131 23-39 59-70 101-87 42-17 89-20 133-8 44 12 83 38 111 75 27 36 42 80 42 126 0 35 28 63 63 63 34 0 62-28 62-63 0-73-24-144-68-202-44-58-107-100-177-119-70-20-145-15-213 12-68 28-125 76-162 139-37 63-53 137-44 209 9 73 41 141 92 193 51 53 117 87 189 98 73 11 147-3 211-38 30-16 41-54 24-85z" horiz-adv-x="1000" />

<glyph glyph-name="picture-in-picture" unicode="&#xe9f0;" d="M500-150c276 0 500 224 500 500 0 276-224 500-500 500-276 0-500-224-500-500 0-276 224-500 500-500z m-312 367v320c0 53 43 96 96 96h384c53 0 96-43 96-96v-152c0-13-10-24-24-24h-206c-41 0-74-33-74-74v-142c0-14-11-24-24-24h-152c-53 0-96 43-96 96z m304 56c0 31 25 56 56 56h208c31 0 57-25 57-56v-144c0-31-26-57-57-57h-208c-31 0-56 26-56 57v144z" horiz-adv-x="1000" />

<glyph glyph-name="video-plus" unicode="&#xe9f1;" d="M492 367h-42v41c0 13-8 21-21 21-12 0-21-8-21-21v-41h-41c-13 0-21-9-21-21 0-13 8-21 21-21h41v-42c0-12 9-20 21-20 13 0 21 8 21 20v42h42c12 0 21 8 21 21 0 12-9 21-21 21z m8 483c-275 0-500-225-500-500 0-275 225-500 500-500 275 0 500 225 500 500 0 275-225 500-500 500z m108-600c0-37-29-67-66-67h-225c-38 0-67 30-67 67v200c0 38 29 67 67 67h229c37 0 67-29 67-67v-200h-5z m142 4c0-29-33-41-54-25l-54 46v154l54 46c21 13 54 0 54-29v-192z" horiz-adv-x="1000" />

<glyph glyph-name="cart-slash" unicode="&#xe9f2;" d="M365 348h83l54-47h-130v0c-4 0-7 3-7 7v40z m135-498c276 0 500 224 500 500 0 276-224 500-500 500-276 0-500-224-500-500 0-276 224-500 500-500z m163 498h-92l-248 219v33h-47c-11 0-21 9-21 21 0 11 10 21 21 21h68c12 0 21-10 21-21v-68h331c18 0 31-17 27-34l-33-149c-3-13-14-22-27-22z m-54-213c0 21 10 39 24 52l-83 72h-178c-27 0-48 22-48 49v148l-108 94c-9 8-10 21-2 30 7 8 20 9 29 2l81-71v0l10-8 468-408c9-8 10-21 2-29-7-9-21-10-29-2l-38 32c-13-18-34-31-58-31-38 0-70 31-70 70z m112 124h-49l-48 42h97c11 0 20-10 20-21 0-11-9-21-20-21z m-320-194c-38 0-69 31-69 70 0 38 31 69 69 69 39 0 70-31 70-69 0-39-31-70-70-70z" horiz-adv-x="1000" />

<glyph glyph-name="brand-intercom" unicode="&#xe9f3;" d="M600 294v209c0 14-6 22-17 22-10 0-16-8-16-21v-210c0-13 7-21 16-21 10 0 17 8 17 21z m-84 217c0 14-5 22-16 22-11 0-16-7-16-22v-226c0-15 5-22 16-22 11 0 16 7 16 22v226z m-83-8c0 14-6 22-17 22-10 0-15-8-15-21v-209c0-14 6-22 16-22 10 0 16 8 16 21v209z m-83-31c0 12-6 20-16 20-10 0-16-7-16-20 0-16 0-31 0-46 0-8 0-16 0-24v-70c0-13 5-20 15-20 11 0 17 7 17 20v140z m149-300c26 0 51 3 75 8 36 8 70 21 101 44 8 6 11 14 4 23-6 8-15 9-23 3-62-43-132-52-205-42-39 6-75 19-107 42-8 6-17 5-23-3-7-8-4-17 4-23 4-2 7-5 11-7 50-32 105-44 163-45z m151 160c0-13 6-20 17-20 10 1 15 8 15 20 1 16 1 31 0 46v0c0 8 0 16 0 23v71c0 13-6 20-16 20-10 0-16-8-16-20v-140z m-150-482c276 0 500 224 500 500 0 276-224 500-500 500-276 0-500-224-500-500 0-276 224-500 500-500z m-180 750h360c45 0 70-25 70-71v-353c0-46-25-71-71-71h-359c-44 0-70 25-70 70v355c0 45 25 70 70 70z" horiz-adv-x="1000" />

<glyph glyph-name="cloud-check" unicode="&#xe9f4;" d="M595 354c8 9 8 23 0 31-9 9-23 9-31 0l-90-89-32 32c-8 9-22 9-31 0-8-9-8-22 0-31l48-48c8-8 22-8 31 0l105 105z m-95-504c276 0 500 224 500 500 0 276-224 500-500 500-276 0-500-224-500-500 0-276 224-500 500-500z m-163 587c24 71 91 121 169 121 99 0 179-80 179-178 65 0 119-53 119-119 0-66-54-119-119-119h-328c-82 0-149 66-149 149 0 75 56 136 129 146z" horiz-adv-x="1000" />

<glyph glyph-name="cloud-exclamation" unicode="&#xe9f5;" d="M498 443l-1 0-2 0 0 0c-6-1-11-3-15-7-4-4-7-9-7-15l0 0 4-90 0-2 0 0c1-10 10-17 20-17 11 0 20 8 20 19l4 90 0 2 0 0c0 6-4 11-8 14-4 4-10 6-15 6z m1-160c-13 0-23-10-23-23 0-12 10-22 23-22 12 0 22 10 22 22 0 13-10 23-22 23z m1-433c-276 0-500 224-500 500 0 276 224 500 500 500 276 0 500-224 500-500 0-276-224-500-500-500z m-166 590c-71-10-126-70-126-144 0-81 66-146 146-146h321c64 0 117 52 117 117 0 64-53 116-117 116 0 97-78 175-175 175-77 0-142-49-166-118z" horiz-adv-x="1000" />

<glyph glyph-name="cloud-times" unicode="&#xe9f6;" d="M461 379c-8 8-21 8-29 0-8-8-8-21 0-29l33-33-33-33c-8-9-8-22 0-30 8-8 21-8 29 0l33 33 33-33c9-8 22-8 30 0 8 8 8 21 0 30l-33 33 33 33c8 8 8 21 0 29-8 8-21 8-30 0l-33-33-33 33z m39-529c-276 0-500 224-500 500 0 276 224 500 500 500 276 0 500-224 500-500 0-276-224-500-500-500z m-166 590c-71-10-126-70-126-144 0-81 66-146 146-146h321c64 0 117 52 117 117 0 64-53 116-117 116 0 97-78 175-175 175-77 0-142-49-166-118z" horiz-adv-x="1000" />

<glyph glyph-name="crown" unicode="&#xe9f7;" d="M500-150c276 0 500 224 500 500 0 276-224 500-500 500-276 0-500-224-500-500 0-276 224-500 500-500z m22 740l109-146 119 108c7 8 19 9 28 4 10-4 15-14 13-25l-47-321c-2-12-13-21-25-21h-438c-12 0-23 9-24 21l-48 321c-2 11 3 21 13 25 9 5 21 4 29-4l119-108 112 146c5 6 12 10 20 10 8 0 16-4 20-10z m-222-442h400c14 0 25-10 25-24 0-13-11-24-25-24h-400c-14 0-25 11-25 24 0 14 11 24 25 24z" horiz-adv-x="1000" />

<glyph glyph-name="emoticon-confused" unicode="&#xe9f8;" d="M604 463c-15 0-24-12-24-24h-3v-29c0-15 9-24 24-24 15 0 24 12 24 24v29c0 15-6 24-21 24z m-211 0c-12 0-21-9-21-24v-29c0-12 6-24 21-24 15 0 24 12 24 24v29c0 15-12 24-24 24z m6-235l223 51c12 3 21 15 18 26-3 12-15 21-27 18l-223-50c-12-3-21-15-18-27 3-12 15-21 27-18z m101-378c276 0 500 224 500 500 0 276-224 500-500 500-276 0-500-224-500-500 0-276 224-500 500-500z m-292 500c0 161 131 292 292 292 158 0 292-131 292-292 0-161-131-292-292-292-161 0-292 131-292 292z" horiz-adv-x="1000" />

<glyph glyph-name="folder-download" unicode="&#xe9f9;" d="M443 354c-6 6-16 6-22 0-6-6-6-16 0-22l68-68c6-6 16-6 22 0l68 68c6 6 6 16 0 22-6 6-16 6-21 0l-43-43v121c0 8-7 15-15 15-8 0-15-7-15-15v-121l-42 43z m57-504c276 0 500 224 500 500 0 276-224 500-500 500-276 0-500-224-500-500 0-276 224-500 500-500z m167 661c46 0 83-37 83-83v-175c0-46-37-84-83-84h-334c-46 0-83 38-83 84v222c0 46 37 83 83 83h100c9 0 19-2 28-7l54-32c8-5 18-8 28-8h124z" horiz-adv-x="1000" />

<glyph glyph-name="folder-move" unicode="&#xe9fa;" d="M500 411l42-42h-121c-8 0-15-7-15-16 0-8 7-15 15-15h121l-42-42c-6-6-6-16 0-21 6-6 15-6 21 0l68 68c6 6 6 15 0 21l-68 68c-6 6-15 6-21 0-6-6-6-15 0-21z m0-561c276 0 500 224 500 500 0 276-224 500-500 500-276 0-500-224-500-500 0-276 224-500 500-500z m167 661c46 0 83-37 83-83v-175c0-46-37-84-83-84h-334c-46 0-83 38-83 84v222c0 46 37 83 83 83h100c9 0 19-2 28-7l54-32c8-5 18-8 28-8h124z" horiz-adv-x="1000" />

<glyph glyph-name="folder-upload" unicode="&#xe9fb;" d="M443 353l42 43v-121c0-9 7-15 15-15 8 0 15 6 15 15v121l43-43c5-6 15-6 21 0 6 6 6 16 0 22l-68 68c-6 6-16 6-22 0l-68-68c-6-6-6-16 0-22 6-6 16-6 22 0z m57-503c276 0 500 224 500 500 0 276-224 500-500 500-276 0-500-224-500-500 0-276 224-500 500-500z m167 661c46 0 83-37 83-83v-175c0-46-37-84-83-84h-334c-46 0-83 38-83 84v222c0 46 37 83 83 83h100c9 0 19-2 28-7l54-32c8-5 18-8 28-8h124z" horiz-adv-x="1000" />

<glyph glyph-name="grip-h" unicode="&#xe9fc;" d="M500-150c276 0 500 224 500 500 0 276-224 500-500 500-276 0-500-224-500-500 0-276 224-500 500-500z m-184 662c36 0 66-29 66-65 0-37-30-66-66-66-36 0-66 29-66 66 0 36 30 65 66 65z m0-197c36 0 66-29 66-66 0-36-30-66-66-66-36 0-66 30-66 66 0 37 30 66 66 66z m184 0c36 0 66-29 66-66 0-36-30-66-66-66-36 0-66 30-66 66 0 37 30 66 66 66z m184 0c37 0 66-29 66-66 0-36-29-66-66-66-36 0-66 30-66 66 0 37 30 66 66 66z m-118 132c0-37-30-66-66-66-36 0-66 29-66 66 0 36 30 65 66 65 36 0 66-29 66-65z m184 0c0-37-29-66-66-66-36 0-66 29-66 66 0 36 30 65 66 65 37 0 66-29 66-65z" horiz-adv-x="1000" />

<glyph glyph-name="grip-v" unicode="&#xe9fd;" d="M500-150c276 0 500 224 500 500 0 276-224 500-500 500-276 0-500-224-500-500 0-276 224-500 500-500z m-33 683c0-36-30-66-67-66-37 0-67 30-67 66 0 37 30 67 67 67 37 0 67-30 67-67z m0-186c0-37-30-67-67-67-37 0-67 30-67 67 0 37 30 66 67 66 37 0 67-29 67-66z m0-187c0-37-30-67-67-67-37 0-67 30-67 67 0 37 30 67 67 67 37 0 67-30 67-67z m200 373c0-36-30-66-67-66-37 0-67 30-67 66 0 37 30 67 67 67 37 0 67-30 67-67z m-67-253c-37 0-67 30-67 67 0 37 30 66 67 66 37 0 67-29 67-66 0-37-30-67-67-67z m0-187c-37 0-67 30-67 67 0 37 30 67 67 67 37 0 67-30 67-67 0-37-30-67-67-67z" horiz-adv-x="1000" />

<glyph glyph-name="image-move" unicode="&#xe9fe;" d="M500-150c-276 0-500 224-500 500 0 276 224 500 500 500 276 0 500-224 500-500 0-276-224-500-500-500z m105 336c0 34 27 62 61 62h35c1 10 4 20 9 29l-58 49c-22 21-58 22-80 0l-37-35c-14-13-35-13-48 0l-77 77c-26 25-67 25-92 0l-22-23v90c0 43 35 77 77 77h276c43 0 77-34 77-77v-140c13 9 30 13 46 11v129c0 68-55 123-123 123h-276c-68 0-123-55-123-123v-189c0-67 55-122 123-122h276c1 0 2 0 4 0 0 0 1 0 1 0 1 0 2 0 3 0-30 5-52 31-52 62z m-69 184c32 0 58 26 58 58 0 32-26 58-58 58-32 0-58-26-58-58 0-32 26-58 58-58z m239-112c-7 8-18 8-25 0-7-7-7-18 0-26l25-28h-109c-10 0-18-9-18-18 0-10 7-19 18-19h108l-24-28c-7-7-7-19 0-26 6-7 18-7 25 0l53 59 0 0c7 7 7 19 0 27l-53 59z" horiz-adv-x="1000" />

<glyph glyph-name="mobile-slash" unicode="&#xe9ff;" d="M356 204v247l240-247h-240z m185-89h-78c-12 0-22 10-22 22 0 12 10 22 22 22h78c12 0 22-10 22-22 0-12-10-22-22-22z m-41-265c276 0 500 224 500 500 0 276-224 500-500 500-276 0-500-224-500-500 0-276 224-500 500-500z m-100 748c-19 0-34-12-41-28l-29 30c-1 1-2 1-2 2-1 0-1 0-1 0 16 24 42 40 73 40h204c49 0 88-39 88-88v-325l-44 45v280c0 24-20 44-44 44h-204z m-112-14l454-467c8-9 8-22 0-31-9-8-23-8-31 1l-26 26c-13-32-44-55-81-55h-204c-48 0-88 39-88 88v350l-56 57c-8 9-8 23 1 31 8 9 22 8 31 0z" horiz-adv-x="1000" />

<glyph glyph-name="split" unicode="&#xea00;" d="M500-150c276 0 500 224 500 500 0 276-224 500-500 500-276 0-500-224-500-500 0-276 224-500 500-500z m253 659l-147-98c-13-9-30 1-30 16v66h-53l-123-143 123-143h53v66c0 16 17 25 30 16l147-98c11-7 11-24 0-31l-147-98c-13-9-30 0-30 15v72h-80l-148 172h-110c-17 0-30 13-30 29 0 16 13 29 30 29h110l148 172h80v72c0 15 17 24 30 15l147-97c11-8 11-25 0-32z" horiz-adv-x="1000" />

<glyph glyph-name="star-slash" unicode="&#xea01;" d="M500-150c276 0 500 224 500 500 0 276-224 500-500 500-276 0-500-224-500-500 0-276 224-500 500-500z m244 534l-93-95c0 0-1-1-1-2l-225 189 51 108c10 21 40 21 51 0l55-117c4-9 12-15 21-16l125-20c23-3 32-31 16-47z m-486 0c-16 16-7 44 16 47l64 10-67 57c-9 7-10 20-2 29 7 9 20 10 29 3l435-366c8-7 10-20 2-29-7-9-21-10-30-3l-46 39 6-38c4-24-21-41-41-29l-109 60c-9 5-19 5-28 0l-109-60c-21-12-45 6-41 29l21 132c2 9-1 18-7 24l-93 95z" horiz-adv-x="1000" />

<glyph glyph-name="stopwatch" unicode="&#xea02;" d="M503 482c-14 0-26-12-26-27l0-133c0-15 12-27 26-27 15 0 27 12 27 27v133c0 15-12 27-27 27z m-3-632c276 0 500 224 500 500 0 276-224 500-500 500-276 0-500-224-500-500 0-276 224-500 500-500z m-70 792h145c12 0 20-9 20-20 0-11-8-20-20-20h-52v-39c41-3 80-17 114-38l23 34c6 10 19 12 28 6 9-6 12-19 5-28l-24-36c53-46 86-114 86-190 0-140-113-253-252-253-140 0-253 113-253 253 0 133 102 242 233 252v39h-53c-11 0-20 9-20 20 0 11 9 20 20 20z" horiz-adv-x="1000" />

<glyph glyph-name="strikethrough" unicode="&#xea03;" d="M500-150c276 0 500 224 500 500 0 276-224 500-500 500-276 0-500-224-500-500 0-276 224-500 500-500z m-2 559c15-7 31-14 46-21 3-1 5-2 7-3l192 0c11 0 20-9 20-20 0-11-9-20-20-20l-473 0c-11 0-20 9-20 20 0 11 9 20 20 20l145 0c-6 4-11 8-16 12-14 12-25 26-32 43-8 17-12 37-12 61 0 22 5 41 14 59 8 18 20 33 34 45 14 12 31 21 50 27 18 6 38 10 59 10 20 0 41-3 60-9 20-6 37-13 50-21 14-9 24-18 30-29 6-10 6-21 0-31-5-8-12-12-22-12-10 0-19 4-27 10-11 7-24 15-41 23-16 8-33 11-50 11-28 0-50-8-66-24-17-15-25-36-25-60 0-15 3-28 10-39 7-11 16-20 28-29 11-8 25-15 39-23z m105-145c-6 13-14 23-24 33-5 5-10 9-15 13h89c6-8 11-17 15-27 5-16 8-35 8-57 0-24-4-46-13-66-8-20-21-38-36-53-16-15-35-27-57-35-22-8-46-13-72-14-21 0-41 2-61 7-20 6-38 12-53 20-24 12-39 24-46 37-7 13-7 25 0 34 6 8 13 12 21 11 8-1 16-4 26-10 16-11 34-20 53-28 19-8 40-12 63-12 14 0 28 3 41 8 13 6 25 13 36 22 10 9 18 21 24 34 7 13 10 27 10 42 0 15-3 29-9 41z" horiz-adv-x="1000" />

<glyph glyph-name="trophy-slash" unicode="&#xea04;" d="M345 483l-19 20h-32v-75c0-16 12-28 28-28h23c0 1 0 2 0 4v79z m335 20v-99c0-2 0-3 0-4h24c15 0 27 12 27 28v75h-51z m-180-653c276 0 500 224 500 500 0 276-224 500-500 500-276 0-500-224-500-500 0-276 224-500 500-500z m-232 744c8 8 22 8 31-1l45-46h1l1-2 364-373c8-9 8-23-1-31-8-8-22-8-31 0l-104 107c-10-4-21-7-32-9 0-1 0-2 0-2v-94h30c7 0 13-2 19-5 10-5 18-14 21-25 1-4 1-8 1-11 0-1 0-2-1-2h-199c0 0-1 1-1 2 0 4 0 7 1 11 4 11 11 20 21 25 6 3 12 5 19 5h30v94c0 0 0 1 1 2-63 11-114 57-132 117h-30c-40 0-72 32-72 72v90c0 16 13 29 29 29h4l-16 16c-8 9-8 22 1 31z m412-47h66c16 0 29-13 29-29v-90c0-40-31-72-71-72h-31l0 1c-6-21-16-40-30-57l-283 290c5 3 9 5 15 5h276c16 0 29-14 29-30v-18z" horiz-adv-x="1000" />

<glyph glyph-name="u-turn-down" unicode="&#xea05;" d="M500-150c276 0 500 224 500 500 0 276-224 500-500 500-276 0-500-224-500-500 0-276 224-500 500-500z m-203 446l101-101v229c0 97 79 176 176 176 97 0 176-79 176-176v-74c0-15-12-28-28-28-15 0-28 13-28 28v74c0 67-53 120-120 120-66 0-120-53-120-120l0-229 100 101c11 10 29 10 40 0 11-11 11-29 0-40l-148-148c-11-11-29-11-40 0l-148 148c-11 11-11 29 0 40 11 10 29 10 39 0z" horiz-adv-x="1000" />

<glyph glyph-name="u-turn-left" unicode="&#xea06;" d="M500-150c276 0 500 224 500 500 0 276-224 500-500 500-276 0-500-224-500-500 0-276 224-500 500-500z m-54 703l-101-101h229c97 0 176-79 176-176 0-97-79-176-176-176h-74c-15 0-28 12-28 28 0 15 13 28 28 28h74c67 0 120 53 120 120 0 66-53 120-120 120h-229l101-100c10-11 10-29 0-40-11-11-29-11-40 0l-148 148c-11 11-11 29 0 40l148 148c11 11 29 11 40 0 10-11 10-29 0-39z" horiz-adv-x="1000" />

<glyph glyph-name="u-turn-right" unicode="&#xea07;" d="M500-150c276 0 500 224 500 500 0 276-224 500-500 500-276 0-500-224-500-500 0-276 224-500 500-500z m54 703c-10 10-10 28 0 39 11 11 29 11 40 0l148-148c11-11 11-29 0-40l-148-148c-11-11-29-11-40 0-10 11-10 29 0 40l101 100h-229c-67 0-120-54-120-120 0-67 53-120 120-120h74c15 0 28-13 28-28 0-16-13-28-28-28h-74c-97 0-176 79-176 176 0 97 79 176 176 176h229l-101 101z" horiz-adv-x="1000" />

<glyph glyph-name="u-turn-up" unicode="&#xea08;" d="M500-150c276 0 500 224 500 500 0 276-224 500-500 500-276 0-500-224-500-500 0-276 224-500 500-500z m203 554l-101 101v-229c0-97-79-176-176-176-97 0-176 79-176 176v74c0 15 12 28 28 28 15 0 28-13 28-28v-74c0-67 53-120 120-120 66 0 120 53 120 120v229l-100-101c-11-10-29-10-40 0-11 11-11 29 0 40l148 148c11 11 29 11 40 0l148-148c11-11 11-29 0-40-11-10-29-10-39 0z" horiz-adv-x="1000" />

<glyph glyph-name="user-arrow-down" unicode="&#xea09;" d="M500-150c-276 0-500 224-500 500 0 276 224 500 500 500 276 0 500-224 500-500 0-276-224-500-500-500z m-17 515c65 0 117 52 117 117 0 65-52 118-117 118-64 0-116-53-116-118 0-65 52-117 116-117z m80-184c0 11 5 21 12 29 15 15 40 16 56 2v87c-22 11-46 18-72 18h-158c-76-3-137-60-150-135-1-1-1-3-1-4 0-2 0-4 0-7v-1c0-24 20-43 44-43h307l-26 26c-7 7-12 17-12 28z m31-9l68-68c0 0 1-1 1-1 1-1 2-1 3-2 4-1 7-1 11 0 1 1 3 2 4 3l68 68c5 5 5 14 0 19-6 5-14 5-19 0l-45-45v157c0 8-6 14-14 14-7 0-13-6-13-14v-157l-45 45c-5 5-14 5-19 0-6-5-5-14 0-19z" horiz-adv-x="1000" />

<glyph glyph-name="user-arrow-up" unicode="&#xea0a;" d="M500-150c-276 0-500 224-500 500 0 276 224 500 500 500 276 0 500-224 500-500 0-276-224-500-500-500z m-16 515c64 0 117 52 117 118 0 65-53 117-117 117-65 0-117-52-117-117 0-66 52-118 117-118z m91-158c-15 15-15 41 0 57l42 42c-18 7-37 11-57 11h-159c-75-3-137-60-150-135 0-2-1-6-1-11v-1c0-24 20-43 44-43h337v78c-16-14-40-14-56 2z m174 38l-67 68c-2 1-3 2-5 3-1 0-2 1-4 1-2 0-4-1-6-1-2-1-3-2-4-3l-68-68c-6-5-6-14 0-19 5-6 14-6 19 0l45 44v-156c0-8 6-14 13-14 8 0 14 6 14 14v156l45-44c5-6 13-6 19 0 5 5 4 14-1 19z" horiz-adv-x="1000" />

<glyph glyph-name="user-crown" unicode="&#xea0b;" d="M500-150c276 0 500 224 500 500 0 276-224 500-500 500-276 0-500-224-500-500 0-276 224-500 500-500z m130 624c0-69-56-126-125-126-70 0-126 56-126 126 0 70 56 126 126 126 69 0 125-56 125-126z m9-334c2-7 5-13 9-18-2-5-3-11-3-16 0-5 1-9 2-13h-350c-26 0-47 21-47 46v1c0 6 1 10 1 12 14 80 81 142 163 145h173c25 0 49-6 70-16-4-1-7-2-11-3l0 0v0c-15-8-23-25-21-41l14-97z m188 114c5-2 8-8 6-13l-14-98c-1-6-6-11-13-11h-128c-7 0-12 5-13 11l-14 98c-1 5 2 11 7 13 5 3 11 2 15-2l31-28 29 39c2 3 6 5 10 5 4 0 8-2 11-5l27-39 31 28c4 4 10 5 15 2z m-143-135h117c7 0 13-6 13-13 0-7-6-13-13-13h-117c-7 0-13 6-13 13 0 7 6 13 13 13z" horiz-adv-x="1000" />

<glyph glyph-name="user-friends-plus" unicode="&#xea0c;" d="M500-150c-276 0-500 224-500 500 0 276 224 500 500 500 276 0 500-224 500-500 0-276-224-500-500-500z m163 569c42 41 42 109 0 150-42 41-109 41-150 0-42-41-42-109 0-150 42-41 109-41 150 0z m-259 43c28 28 28 72 0 100-28 28-73 28-100 0-28-28-28-72 0-100 27-28 72-28 100 0z m-195-211c-4-25 14-40 34-40h100v15c0 55 33 104 83 127h-96c-60 0-111-44-121-102z m493 0c2 27 19 49 42 59-2 1-5 3-7 4-4 2-9 5-13 6-42 17-88 25-136 25-49 0-95-8-137-25-40-15-67-54-67-98v-20c0-28 18-53 45-61 42-12 95-18 159-18 30 0 57 1 82 4-19 12-31 33-31 57 0 36 28 65 63 67z m4-88h43v-42c0-12 9-21 20-21 12 0 21 9 21 21v42h43c11 0 20 9 20 21 0 11-9 20-20 20h-43v43c0 11-9 20-21 20-11 0-20-9-20-20v-43h-43c-11 0-20-9-20-20 0-12 9-21 20-21z" horiz-adv-x="1000" />

<glyph glyph-name="file-article" unicode="&#xea0d;" d="M388 481v-87c0-16 13-29 29-29h175c16 0 29 13 29 29v87c0 16-13 29-29 29h-175c-16 0-29-13-29-29z m21-160c-12 0-21-10-21-22 0-12 9-22 21-22h190c12 0 22 10 22 22 0 12-10 22-22 22h-190z m-21-109c0-13 9-22 21-22h190c12 0 22 9 22 22 0 12-10 21-22 21h-190c-12 0-21-9-21-21z m112-362c276 0 500 224 500 500 0 276-224 500-500 500-276 0-500-224-500-500 0-276 224-500 500-500z m135 208h-262c-56 0-102 46-102 102v380c0 56 46 102 102 102h209c25 0 48-11 65-30l68-77c15-16 23-36 23-58v-317c0-56-46-102-103-102z" horiz-adv-x="1000" />

<glyph glyph-name="globe-alt" unicode="&#xea0e;" d="M500-150c-276 0-500 224-500 500 0 276 224 500 500 500 276 0 500-224 500-500 0-276-224-500-500-500z m262 634c-36 76-101 133-180 157-7 3-13-6-9-13 25-46 45-97 57-150 1-4 5-7 9-7h115c6 0 11 7 8 13z m-337-195h150c5 0 8 4 9 8 2 18 3 35 4 53-1 18-2 35-4 53-1 4-4 8-9 8h-150c-5 0-8-4-9-8-2-18-3-35-3-53 0-18 1-35 3-53 1-4 4-8 9-8z m-179-60c-6 0-11-7-8-13 36-75 101-133 180-157 7-3 13 6 9 13-25 46-45 97-57 150-1 4-4 7-8 7h-116z m336-170c79 24 144 82 180 157 3 6-2 13-8 13h-115c-4 0-8-3-9-7-12-53-32-104-57-150-4-7 2-16 9-13z m197 230c4 0 7 3 8 8 3 17 5 35 5 53 0 18-2 36-5 53-1 5-4 8-8 8h-127c-6 0-10-5-9-10 2-17 3-34 3-50 0-1 0-1 0-2 0-16-1-33-3-49-1-6 3-11 9-11h127z m-352 339c4 7-2 16-9 13-79-24-144-81-180-157-3-6 2-13 8-13h116c4 0 7 3 8 7 12 53 32 104 57 150z m-206-217c-4 0-7-3-8-8-3-17-5-35-5-53 0-18 2-36 5-53 1-5 4-8 8-8h127c6 0 10 5 9 11-1 16-2 33-3 49l0 1 0 1c1 16 2 33 3 50 1 5-3 10-9 10h-127z m286 212c-3 5-11 5-14 0-27-43-48-90-62-140-1-6 3-12 9-12h120c6 0 10 6 9 12-14 50-35 97-62 140z m62-406c1 6-3 12-9 12h-120c-6 0-10-6-9-12 14-50 35-97 62-140 3-5 11-5 14 0 27 43 48 90 62 140z" horiz-adv-x="1000" />

<glyph glyph-name="newspaper" unicode="&#xea0f;" d="M400 500v-90c0-17 13-30 29-30h195c16 0 29 13 29 30v90c0 16-13 30-29 30h-195c-16 0-29-14-29-30z m22-180c-12 0-22-10-22-22 0-13 10-23 22-23h209c12 0 22 10 22 23 0 12-10 22-22 22h-209z m-22-112c0-12 10-22 22-22h209c12 0 22 10 22 22 0 12-10 22-22 22h-209c-12 0-22-10-22-22z m100-358c276 0 500 224 500 500 0 276-224 500-500 500-276 0-500-224-500-500 0-276 224-500 500-500z m-206 709c0 43 30 83 72 83h321c42 0 72-40 72-83v-418c0-43-30-83-72-83h-400c-2 0-4 1-6 1-2 0-6-1-9-1-35 0-64 31-64 68v433c0 13 10 23 22 23 12 0 21-10 21-23v-433c0-13 10-23 21-23 11 0 20 8 21 19 1 4 1 9 1 17v341l0 0v79z" horiz-adv-x="1000" />

<glyph glyph-name="user-cancel" unicode="&#xea10;" d="M610 169c0-13 4-24 9-35l97 97c-10 6-22 9-35 9-39 0-71-32-71-71z m37-62c10-6 22-9 34-9 40 0 71 31 71 71 0 12-3 24-8 34l-97-96z m-147-257c-276 0-500 224-500 500 0 276 224 500 500 500 276 0 500-224 500-500 0-276-224-500-500-500z m99 661c0 72-58 131-130 131-72 0-130-59-130-131 0-73 58-131 130-131 72 0 130 58 130 131z m-78-333c0 62 37 115 91 138-18 7-38 10-58 10h-170l-7 0c-85-3-153-67-168-151 0-2 0-6-1-12l0-1c0-26 22-48 49-48h278c-9 19-14 41-14 64z m160 101c-61 0-110-49-110-110 0-61 49-111 110-111 61 0 111 50 111 111 0 61-50 110-111 110z" horiz-adv-x="1000" />

<glyph glyph-name="user-info" unicode="&#xea11;" d="M500-150c-276 0-500 224-500 500 0 276 224 500 500 500 276 0 500-224 500-500 0-276-224-500-500-500z m119 626c0 69-55 124-123 124-68 0-123-55-123-124 0-69 55-124 123-124 68 0 123 56 123 124z m-83-275c0 18 11 34 27 40-16 6-27 22-27 40 0 8 2 15 5 21h-132c-80-3-145-64-158-143-1-2-1-6-1-11v-1c0-25 21-46 46-46h251c-3 6-6 14-6 21 0 17 10 32 25 39-18 5-30 21-30 40z m150 56c12 0 21 10 21 22 0 11-9 21-21 21h-72c-11 0-21-10-21-21 0-12 10-22 21-22h72z m67-78c12 0 22 9 22 21 0 12-10 21-22 21h-139c-11 0-21-9-21-21 0-12 10-21 21-21h139z m-139-79h139c12 0 22 10 22 21 0 12-10 22-22 22h-139c-11 0-21-10-21-22 0-11 10-21 21-21z" horiz-adv-x="1000" />

<glyph glyph-name="brand-x" unicode="&#xea12;" d="M356 567h-41l329-434h42l-330 434z m144-717c276 0 500 224 500 500 0 276-224 500-500 500-276 0-500-224-500-500 0-276 224-500 500-500z m-292 771h173l135-178 144 177h96l-194-238 230-303h-173l-146 193-156-192h-96l206 253-219 288z" horiz-adv-x="1000" />

<glyph glyph-name="thumbtack-times" unicode="&#xea13;" d="M627 529l-30 30c-7 8-19 8-26 0-7-7-7-18 0-25l30-30-30-30c-7-8-7-19 0-26 7-7 19-7 26 0l30 30 30-30c7-7 19-7 26 0 7 7 7 18 0 26l-30 30 30 30c7 7 7 18 0 25-7 8-19 8-26 0l-30-30z m-127-679c276 0 500 224 500 500 0 276-224 500-500 500-276 0-500-224-500-500 0-276 224-500 500-500z m124 499c8 0 15 1 22 2 43-30 69-75 78-133l1-9c2-15-10-27-24-27l-188 0 0-123c0-13-11-24-24-24-12 0-22 9-24 21l0 3 0 123-180 0c-15 0-26 12-24 27l1 9c10 68 45 118 102 147l2 1 11 214-42 0c-14 0-24 11-24 24 0 13 9 23 20 24l4 1 190-1c-35-28-58-72-58-122 0-87 71-157 157-157z m-115 157c0 64 52 116 115 116 64 0 116-52 116-116 0-63-52-115-116-115-63 0-115 52-115 115z" horiz-adv-x="1000" />

<glyph glyph-name="activity-slash" unicode="&#xed90;" d="M500-150c276 0 500 224 500 500 0 276-224 500-500 500-276 0-500-224-500-500 0-276 224-500 500-500z m-227 720l0 0 466-467c1-1 3-3 5-4l0 0c13-13 13-35 0-48-13-13-34-13-47 0l-48 49h-303c-58 0-104 47-104 104v292c0 3 0 7 0 11l-45 44c-13 13-13 35 0 48 13 13 34 13 47 0l29-29z m507-366c0-14-3-27-8-40l-143 144h39c12 0 22 10 22 22 0 12-10 22-22 22h-38l-45 130c-3 9-12 15-22 15-10-1-18-8-21-18l-15-69-189 190c2 0 5 0 8 0h330c58 0 104-47 104-104v-292z m-211 188l12-36-17 17 5 19z m-173-40h-28c-12 0-22-10-22-22 0-12 10-22 22-22h51c6 0 12 2 17 5l-40 39z m80-79l13-42c3-10 12-16 22-16 6 1 12 3 16 7l-51 51z" horiz-adv-x="1000" />

<glyph glyph-name="address-book" unicode="&#xed91;" d="M1000 350c0 276-224 500-500 500-276 0-500-224-500-500 0-276 224-500 500-500 276 0 500 224 500 500z m-657 271h314c46 0 84-37 84-83v-375c0-46-38-84-84-84h-314c-46 0-84 38-84 84l0 42h-30c-14 0-25 11-25 25 0 13 11 25 25 25h30l0 190h-30c-14 0-25 12-25 25 0 14 11 25 25 25h30v43c0 46 38 83 84 83z m299-372c-8 46-48 82-96 82h-92l-4 0c-46-2-84-37-92-83 0-1 0-3 0-6l0-1c0-15 12-26 26-26h232l0 0c15 0 27 12 26 27 0 3 0 5 0 7z m-142 108c39 0 71 32 71 72 0 39-32 72-71 72-39 0-71-33-71-72 0-40 32-72 71-72z" horiz-adv-x="1000" />

<glyph glyph-name="alarm" unicode="&#xed93;" d="M500 850c-276 0-500-224-500-500 0-276 224-500 500-500 276 0 500 224 500 500 0 276-224 500-500 500z m-154-213c21 2 43-7 57-26l-103-73c-13 18-15 42-6 62 4 10 11 19 21 26 9 7 20 10 31 11z m390-306c0-72-32-136-83-180l42-56c9-12 7-28-5-37-12-9-29-7-38 5l-44 58c-32-17-69-26-108-26-39 0-76 9-108 26l-44-58c-9-12-26-14-38-5-12 9-14 25-5 37l42 56c-51 44-84 108-84 180 0 131 106 237 237 237 130 0 236-106 236-237z m-236 129c-15 0-27-12-27-27v-104c0-15 12-27 27-27h104c15 0 27 12 27 27 0 15-12 27-27 27h-77v77c0 15-12 27-27 27z m97 151c14 19 35 28 57 26 11-1 22-4 31-11 10-7 17-16 21-26 9-20 7-44-6-62l-103 73z" horiz-adv-x="1000" />

<glyph glyph-name="album" unicode="&#xed94;" d="M500-150c276 0 500 224 500 500 0 276-224 500-500 500-276 0-500-224-500-500 0-276 224-500 500-500z m-250 625c0 69 56 125 125 125h250c69 0 125-56 125-125v-250c0-69-56-125-125-125h-250c-69 0-125 56-125 125v250z m250-292c92 0 167 75 167 167 0 92-75 167-167 167-92 0-167-75-167-167 0-92 75-167 167-167z m0 139c-15 0-28 13-28 28 0 15 13 28 28 28 15 0 28-13 28-28 0-15-13-28-28-28z" horiz-adv-x="1000" />

<glyph glyph-name="arrows" unicode="&#xeda5;" d="M0 350c0-276 224-500 500-500 276 0 500 224 500 500 0 276-224 500-500 500-276 0-500-224-500-500z m343-120c-13-13-35-13-48 0l-96 97c-6 6-10 14-10 23 0 9 4 17 10 24l96 96c13 13 35 13 48 0 13-13 13-34 0-47l-41-40h165v165l-40-41c-13-13-34-13-47 0-13 14-13 35 0 48l96 96c7 6 15 10 24 10 9 0 17-4 24-10l96-96c13-13 13-34 0-48-13-13-34-13-47 0l-39 39v-163h164l-41 40c-13 13-13 34 0 47 13 13 34 13 47 0l97-96c6-7 10-15 10-24 0-9-4-17-10-23l-97-97c-13-13-34-13-47 0-13 13-13 34 0 47l39 39h-162v-162l39 39c13 13 34 13 47 0 13-13 13-34 0-47l-96-97c-7-6-15-10-24-10-9 0-17 4-24 10l-96 97c-13 13-13 34 0 47 13 13 34 13 47 0l40-40v163h-163l39-39c13-13 13-34 0-47z" horiz-adv-x="1000" />

<glyph glyph-name="arrows-h" unicode="&#xeda6;" d="M0 350c0-276 224-500 500-500 276 0 500 224 500 500 0 276-224 500-500 500-276 0-500-224-500-500z m623-126c-13 13-13 34 0 47l46 46h-339l47-47c13-13 13-34 0-47-13-13-34-13-47 0l-104 104c-6 6-9 15-9 23l0 0 0 1c0 10 4 19 11 25l102 102c13 13 34 13 47 0 13-13 13-35 0-48l-46-46h339l-47 47c-13 13-13 34 0 47 13 13 34 13 47 0l104-104c6-6 9-14 9-23l0 0 0 0c0-11-4-20-11-26l-102-101c-13-13-34-13-47 0z" horiz-adv-x="1000" />

<glyph glyph-name="arrows-v" unicode="&#xeda7;" d="M500-150c276 0 500 224 500 500 0 276-224 500-500 500-276 0-500-224-500-500 0-276 224-500 500-500z m-80 377l46-46 0 339-47-47c-13-13-34-13-47 0-13 13-13 34 0 47l103 103c6 6 13 10 22 10 1 0 2 0 2 0 9 0 18-3 24-9l104-104c13-13 13-34 0-47-13-13-35-13-48 0l-46 47 0-340 47 47c13 13 34 13 47 0 13-13 13-34 0-47l-104-104c-6-6-15-9-23-9 0 0 0 0 0 0-1 0-1 0-1 0-10 0-19 4-25 11l-102 102c-13 13-13 34 0 47 13 13 35 13 48 0z" horiz-adv-x="1000" />

<glyph glyph-name="article" unicode="&#xeda9;" d="M500-150c276 0 500 224 500 500 0 276-224 500-500 500-276 0-500-224-500-500 0-276 224-500 500-500z m237 693l1-5-1-80c-11 2-22-3-30-11l-20-22 0 16c0 28-22 51-50 51l-328 0c-27 0-50-23-50-50l0-280c0-16 12-29 27-31l3 0h368c16 0 28 12 30 28l0 3v36l51 55v-91c0-44-34-80-77-83l-4 0h-368c-43 0-78 35-80 78l-1 5v376c0 44 34 80 76 83l5 0h368c43 0 78-35 80-78z m39-201l-6-6-60 59 7 7c16 16 43 16 59-1l1-1c16-16 15-42-1-58z m-196-75l111 109 60-59-112-111c-5-4-11-7-17-7l-49-10c-6-1-11 4-10 10l10 51c0 6 3 13 7 17z m-291 128c0 17 14 31 31 31h174c17 0 31-14 31-31 0-18-14-32-31-32h-174c-17 0-31 14-31 32z m31-64h101c17 0 31-14 31-32 0-17-14-31-31-31h-101c-17 0-31 14-31 31 0 18 14 32 31 32z" horiz-adv-x="1000" />

<glyph glyph-name="article-slash" unicode="&#xedaa;" d="M500 850c-276 0-500-224-500-500 0-276 224-500 500-500 276 0 500 224 500 500 0 276-224 500-500 500z m-309-269c10 9 26 9 35-1l476-483c10-10 10-26 0-36-10-9-26-9-36 1l-52 53h-277c-37 0-67 30-69 67l0 4v281l-77 78c-10 10-10 26 0 36z m261-301l118-120h-233l-2 0c-13 1-24 13-24 26l0 236 29-29c0-2-1-4-1-6 0-14 12-25 25-25h7l32-32h-39c-13 0-25-11-25-25 0-14 12-25 25-25h87l1 0z m51 82l-50 50h61c14 0 25-11 25-25 0-14-11-25-25-25h-11z m136-137l-51 52c0 0 0 0 1 0l95 94 52-51-97-95z m42-41l0 2v32l43 47v-79c0-13-3-25-9-36l-34 34z m-287 287l-98 97c11 8 24 13 37 14l4 0h318c37 0 67-30 69-67l0-4 0-69c-10 1-19-2-26-10l-17-19 0 14c0 24-20 44-44 44l0 0-243 0z m358-135l-51 52 16 16c9 8 22 8 30 0l21-23c8-8 8-21 0-29l-16-16z" horiz-adv-x="1000" />

<glyph glyph-name="asterisk" unicode="&#xedab;" d="M500-150c276 0 500 224 500 500 0 276-224 500-500 500-276 0-500-224-500-500 0-276 224-500 500-500z m50 750v-178l153 88c20 11 45 4 57-16 11-20 4-45-15-57l-153-88 152-87c20-12 27-37 15-57-11-20-37-27-57-15l-152 87v-177c0-23-18-42-41-42-23 0-42 19-42 42v177l-154-89c-20-11-45-4-57 16-11 20-5 45 15 57l154 88-154 90c-20 11-27 37-15 57 11 20 37 26 57 15l154-89v178c0 23 19 42 42 42 23 0 41-19 41-42z" horiz-adv-x="1000" />

<glyph glyph-name="audio-description" unicode="&#xedad;" d="M500 850c-276 0-500-224-500-500 0-276 224-500 500-500 276 0 500 224 500 500 0 276-224 500-500 500z m-292-350c0 46 38 83 84 83h416c46 0 84-37 84-83v-300c0-46-38-83-84-83h-416c-46 0-84 37-84 83v300z m338-35c-15 0-27-12-27-27v-174c0-15 12-27 27-27h58c63 0 114 51 114 114 0 63-51 114-114 114h-58z m27-174v119h31c33 0 60-26 60-59 0-33-27-60-60-60h-31z m-215 156c5 10 15 16 26 16 10 0 20-6 24-17l61-140c0-1 0-2 0-2l13-30c6-14 0-30-14-36-14-6-30 1-36 14l-6 15h-86l-7-15c-6-14-22-20-35-14-14 6-20 22-14 36l12 29c1 1 1 2 1 3l61 141z m25-79l-20-47h40l-20 47z" horiz-adv-x="1000" />

<glyph glyph-name="backward" unicode="&#xedaf;" d="M500 850c-276 0-500-224-500-500 0-276 224-500 500-500 276 0 500 224 500 500 0 276-224 500-500 500z m-256-527c-20 12-20 40 0 52l189 158c21 13 48-2 48-26v-145c2 5 6 10 11 13l190 158c20 13 47-2 47-26v-316c0-24-27-39-47-26l-190 158c-5 3-9 8-11 13v-145c0-24-27-39-48-26l-189 158z" horiz-adv-x="1000" />

<glyph glyph-name="brand-memberpress" unicode="&#xedb0;" d="M500-150c276 0 500 224 500 500 0 276-224 500-500 500-276 0-500-224-500-500 0-276 224-500 500-500z m-292 688c47 0 88-20 117-52 29 32 71 52 117 52 46 0 87-20 116-52 29 32 71 52 117 52 88 0 158-71 158-159v-175c0-23-18-41-41-41-23 0-42 18-42 41v175c0 42-34 75-75 75-41 0-74-33-75-74 0 0 0 0 0-1v-175c0-23-19-41-42-41 0 0-1 0-2 0-22 1-39 19-39 41v175c0 1 0 1 0 1-1 41-34 74-75 74-42 0-75-33-75-75v-175c0-23-19-41-42-41-23 0-42 18-42 41v175c0 42-33 75-75 75-23 0-41 19-41 42 0 23 18 42 41 42z" horiz-adv-x="1000" />

<glyph glyph-name="bars" unicode="&#xedb1;" d="M500 850c-276 0-500-224-500-500 0-276 224-500 500-500 276 0 500 224 500 500 0 276-224 500-500 500z m-271-487c0 12 10 21 21 21h500c12 0 21-9 21-21v-26c0-12-9-21-21-21h-500c-11 0-21 9-21 21v26z m21-140h500c12 0 21-9 21-21v-26c0-11-9-21-21-21h-500c-11 0-21 10-21 21v26c0 12 10 21 21 21z m-21 301c0 11 10 21 21 21h500c12 0 21-10 21-21v-26c0-12-9-21-21-21h-500c-11 0-21 9-21 21v26z" horiz-adv-x="1000" />

<glyph glyph-name="bars-2" unicode="&#xedb2;" d="M0 350c0-276 224-500 500-500 276 0 500 224 500 500 0 276-224 500-500 500-276 0-500-224-500-500z m250-48h500c12 0 21-10 21-21v-26c0-12-9-21-21-21h-500c-11 0-21 9-21 21v26c0 11 10 21 21 21z m-21 140c0 11 10 21 21 21h500c12 0 21-10 21-21v-26c0-12-9-21-21-21h-500c-11 0-21 9-21 21v26z" horiz-adv-x="1000" />

<glyph glyph-name="battery-full" unicode="&#xedb5;" d="M1000 350c0 276-224 500-500 500-276 0-500-224-500-500 0-276 224-500 500-500 276 0 500 224 500 500z m-208 90c17 0 31-14 31-32v-116c0-18-14-32-31-32-18 0-32 14-32 32v116c0 18 14 32 32 32z m-496 85h350c48 0 87-39 87-87v-175c0-49-39-88-87-88h-350c-48 0-88 39-88 88v175c0 48 40 87 88 87z" horiz-adv-x="1000" />

<glyph glyph-name="battery-half" unicode="&#xedb6;" d="M500-150c276 0 500 224 500 500 0 276-224 500-500 500-276 0-500-224-500-500 0-276 224-500 500-500z m-204 675h350c48 0 87-39 87-87v-175c0-49-39-88-87-88h-350c-48 0-88 39-88 88v175c0 48 40 87 88 87z m527-117v-116c0-18-14-32-31-32-18 0-32 14-32 32v116c0 18 14 32 32 32 17 0 31-14 31-32z m-542 15v-146c0-16 13-29 29-29h146c16 0 29 13 29 29v146c0 16-13 29-29 29h-146c-16 0-29-13-29-29z" horiz-adv-x="1000" />

<glyph glyph-name="battery-quarter" unicode="&#xedb7;" d="M500-150c276 0 500 224 500 500 0 276-224 500-500 500-276 0-500-224-500-500 0-276 224-500 500-500z m-204 675h350c48 0 87-39 87-87v-175c0-49-39-88-87-88h-350c-48 0-88 39-88 88v175c0 48 40 87 88 87z m-15-256c0-12 10-21 21-21h46c11 0 21 9 21 21v162c0 12-10 21-21 21h-46c-11 0-21-9-21-21v-162z m511 171c17 0 31-14 31-32v-116c0-18-14-32-31-32-18 0-32 14-32 32v116c0 18 14 32 32 32z" horiz-adv-x="1000" />

<glyph glyph-name="battery-slash" unicode="&#xedb8;" d="M500-150c276 0 500 224 500 500 0 276-224 500-500 500-276 0-500-224-500-500 0-276 224-500 500-500z m-274 724c13 13 35 13 48 0l423-424c13-13 13-34 0-47-13-13-34-13-47 0l-60 60h-302c-50 0-90 42-90 93v188c0 30 14 58 36 75l-8 7c-13 13-13 35 0 48z m57-104l241-241h-236c-10 0-23 10-23 27v188c0 14 9 23 18 26z m390-204v178c0 17-13 27-24 27h-181l-67 67h248c50 0 91-42 91-94v-188c0-16-5-32-12-45l-55 55z m129 184c21 0 38-17 38-37v-125c0-21-17-38-38-38-21 0-37 17-37 38v125c0 20 16 37 37 37z" horiz-adv-x="1000" />

<glyph glyph-name="battery-three-quarters" unicode="&#xedb9;" d="M500-150c276 0 500 224 500 500 0 276-224 500-500 500-276 0-500-224-500-500 0-276 224-500 500-500z m-204 675h350c48 0 87-39 87-87v-175c0-49-39-88-87-88h-350c-48 0-88 39-88 88v175c0 48 40 87 88 87z m527-117v-116c0-18-14-32-31-32-18 0-32 14-32 32v116c0 18 14 32 32 32 17 0 31-14 31-32z m-542 15v-146c0-16 13-29 29-29h263c16 0 29 13 29 29v146c0 16-13 29-29 29h-263c-16 0-29-13-29-29z" horiz-adv-x="1000" />

<glyph glyph-name="bolt" unicode="&#xedbf;" d="M500-150c276 0 500 224 500 500 0 276-224 500-500 500-276 0-500-224-500-500 0-276 224-500 500-500z m-206 442c-17 0-27 20-16 34l242 294c5 6 16 2 15-7l-23-181c-1-13 8-24 21-24h191c18 0 28-20 17-34l-242-293c-6-7-16-2-15 6l22 181c2 13-8 24-20 24h-192z" horiz-adv-x="1000" />

<glyph glyph-name="books" unicode="&#xedc3;" d="M500 850c-276 0-500-224-500-500 0-276 224-500 500-500 276 0 500 224 500 500 0 276-224 500-500 500z m5-713c0-20-16-37-36-37h-52c-19 0-35 17-35 37 0-20-16-37-36-37h-52c-20 0-36 17-36 37v29h247v-29z m236 24c5-20-6-40-25-46l-50-13c-19-6-39 6-44 26l-7 27 119 33 7-27z m-13 52l-119-33-79 301 114 31 2 1c1 1 2 2 3 2l79-302z m-223-22h-247v311h247v-311z m138 346c-1 0-2 0-4 0l-2 0-113-32-9 35c-5 19 6 39 25 45l50 13c19 6 39-6 44-26l9-35z m-262 30l1-4c0 21 16 37 35 37h52c20 0 36-16 36-37v-36h-247v36c0 21 16 37 36 37h52c18 0 34-15 35-33z" horiz-adv-x="1000" />

<glyph glyph-name="brand-android" unicode="&#xedc5;" d="M500 850c-276 0-500-224-500-500 0-276 224-500 500-500 276 0 500 224 500 500 0 276-224 500-500 500z m-84-231l38-37c3-4 5-7 7-11 11 3 24 4 36 4 13 0 25-1 37-4 1 4 3 7 7 11l37 37c11 11 28 11 38 0 11-10 11-28 0-38l-33-33c32-22 55-56 62-96h-295c7 40 30 74 61 96l-33 33c-10 10-10 28 0 38 11 11 28 11 38 0z m-21-444h-20c-15 0-28 13-28 28v195h300v-195c0-15-12-28-28-28h-20c0 0 0 0 0 0v-75c0-15-12-27-27-27-15 0-27 12-27 27v75c0 0 0 0 0 0h-96c0 0 0 0 0 0v-75c0-15-12-27-27-27-15 0-27 12-27 27v75c0 0 0 0 0 0z m324 279c15 0 28-13 28-28v-152c0-15-13-27-28-27-15 0-27 12-27 27v152c0 15 12 28 27 28z m-417-28v-152c0-15-12-27-27-27-15 0-27 12-27 27v152c0 15 12 28 27 28 15 0 27-13 27-28z" horiz-adv-x="1000" />

<glyph glyph-name="brand-apple" unicode="&#xedc7;" d="M0 350c0-276 224-500 500-500 276 0 500 224 500 500 0 276-224 500-500 500-276 0-500-224-500-500z m409 185c21 0 41-8 58-16 14-5 27-11 37-11 8 0 20 5 33 10 21 8 47 19 77 16 13 0 44-4 73-24 20-14 13-43-3-62-14-18-28-44-27-79 0-47 22-77 43-95 17-14 28-38 19-58-6-13-14-29-25-45-24-35-49-69-88-70-19 0-31 5-45 11-13 6-27 12-50 12-23 0-38-7-52-13-13-5-25-10-41-11-38-1-67 38-91 73-49 71-87 201-36 288 25 44 69 74 118 74z m145 11c-30-11-50 5-44 37 6 31 35 66 65 77 30 11 49-6 44-37-6-31-35-66-65-77z" horiz-adv-x="1000" />

<glyph glyph-name="brand-buddyboss" unicode="&#xedc8;" d="M500 850c-276 0-500-224-500-500 0-276 224-500 500-500 276 0 500 224 500 500 0 276-224 500-500 500z m-117-529l13 70c-50-10-88-54-89-107-1-59 44-106 101-109-19 32-30 69-29 109 0 12 1 25 4 37z m133 175l-4-18c24 9 49 14 76 14 114 0 205-93 204-208-2-115-96-209-209-209-11 0-22 1-33 3-2 0-7 1-8 3-1 2 2 5 4 6 31 21 57 50 75 83 0 0 1 1 1 1 1 3 4 7 7 11 4 4 9 7 11 9 1 0 1 0 1 0 31 19 52 54 52 93 1 60-47 109-106 109-60 0-109-49-110-109 0-25 8-48 22-67 15 19 23 42 24 67 0 1 0 2 0 4-1 12-1 36 12 53 15 20 47 23 65 7 14-12 22-33 21-64-1-115-95-209-209-209-114 0-205 94-204 209 1 12 2 25 4 37l51 270c1 5 3 9 11 9 94-6 71-104 71-104l-3-18c22 9 47 14 73 14l18 99c1 5 4 9 11 9 95-6 72-104 72-104z" horiz-adv-x="1000" />

<glyph glyph-name="brand-buddyboss-app" unicode="&#xedc9;" d="M500 850c-276 0-500-224-500-500 0-276 224-500 500-500 276 0 500 224 500 500 0 276-224 500-500 500z m93-771h-185c-46 0-84 38-84 84v375c0 46 38 83 84 83h185c46 0 83-37 83-83v-375c0-46-37-84-83-84z m-135 307c-1-5-1-9-1-14 0-14 3-27 10-38-20 1-36 18-36 38 0 19 14 35 32 39l-5-25z m48 62c0 0 8 35-26 37-3 0-3-1-4-3l-6-35c-10 0-18-2-27-5l2 6c0 0 8 35-26 37-2 0-3-1-4-3l-18-96c-1-5-1-9-1-14-1-41 32-74 73-74 40 0 74 33 74 74 0 12-2 19-7 23-7 6-18 5-24-2-4-6-4-15-4-19 0 0 0-1 0-1 0 0 0 0 0-1 0-8-3-17-8-23-5 6-8 15-8 23 0 22 18 39 39 39 21 0 38-17 38-39 0-13-8-26-19-33l0 0c-1 0-3-1-4-3-1-1-2-3-2-4l-1 0c-6-12-15-22-27-30 0 0-1-1-1-2 0-1 2-1 3-1 4-1 8-1 12-1 40 0 74 33 74 74 1 42-32 75-73 75-9 0-18-2-27-5l2 6z m-73-296c0-15 12-27 27-27h81c15 0 27 12 27 27 0 15-12 27-27 27h-81c-15 0-27-12-27-27z" horiz-adv-x="1000" />

<glyph glyph-name="brand-buddyboss-bolt" unicode="&#xedca;" d="M500 850c-276 0-500-224-500-500 0-276 224-500 500-500 276 0 500 224 500 500 0 276-224 500-500 500z m45-733c-10 0-19 1-29 2-2 0-6 1-7 3-1 2 2 4 3 5 28 19 51 45 68 74 0 0 0 1 0 1 2 2 4 6 7 10 3 3 8 6 10 8 0 0 0 0 1 0 23 14 41 39 45 67 9-1 18-2 27-2 22 0 42 4 61 12l2 1c-3-100-87-181-188-181z m-60 374l0 0-3-16c12 4 25 8 39 10-5-14-7-29-7-45 0-16 2-31 6-45-39-12-69-49-69-93-1-22 7-43 19-59 13 16 21 37 21 59 0 1 0 2 0 4 0 10 0 32 11 47 7 9 18 14 29 15 12-21 28-40 49-54l0-5 0-7c-1-102-86-185-188-185-103 0-185 83-184 185 1 9 1 17 2 25l2 8 45 240c1 5 3 8 10 8 83-5 65-88 64-92l0 0-3-16c18 7 37 11 56 12l10 0 17 88c1 5 3 8 10 8 82-5 65-88 64-92z m-188-189c-1-52 40-94 91-96-17 28-27 61-26 96 0 9 1 17 2 25l1 8 12 62c-45-8-79-48-80-95z m373 18l-7 0c0 0-1 0-1 0-2 1-3 1-5 1-1 0-2 0-3 0-1 0-2 0-4 1 0 0-1 0-2 0-1 0-2 1-3 1-1 0-2 0-2 0-45 10-80 45-91 88 0 1 0 2 0 3-1 1-1 2-1 4 0 0-1 1-1 2 0 1 0 3 0 4 0 1-1 2-1 2 0 2 0 4 0 5 0 1 0 2 0 2 0 2 0 5 0 7l0 7c0 1 0 2 0 3 0 1 0 3 1 5l0 1c0 5 1 9 2 14 1 1 1 2 1 2 1 2 1 3 2 5l0 1c1 3 2 6 3 8l1 1c18 43 61 72 111 72 67 0 122-53 122-119 0-44-24-83-60-104l-2 0-4-3c-1 0-2-1-3-1-1 0-2-1-3-1-1-1-2-1-3-2-1 0-2 0-3-1-1 0-2-1-3-1-4-1-8-2-12-3-1-1-2-1-3-1-1 0-2-1-3-1-1 0-2 0-3 0-1 0-3-1-4-1-1 0-2 0-2 0-2 0-3 0-5-1-1 0-1 0-2 0l-1 0-6 0z m56 13l-1 0c2 1 4 2 5 3-1-1-3-2-4-3z m-177 107c0 3 0 5 0 7v0c0-2 0-4 0-7z m115-120c0 0 0 0-1 0h0c1 0 1 0 1 0z m-2 173l-49-59c-1-1-1-1-1-2 0-1 1-2 2-2l1 0h53c2 0 4-1 5-2 0-1 1-2 1-3l0-2-4-35c0-1 0-1 1-2 0-1 1-1 2 0l1 0 50 60c0 0 0 1 0 1 0 1 0 2-1 3l-1 0h-54c-1 0-3 0-4 2-1 1-1 2-2 3l0 1 5 35c0 1 0 2-1 3-1 0-2 0-3 0l-1-1z" horiz-adv-x="1000" />

<glyph glyph-name="brand-buddypress" unicode="&#xedcb;" d="M500 850c-276 0-500-224-500-500 0-276 224-500 500-500 276 0 500 224 500 500 0 276-224 500-500 500z m0-792c-161 0-292 131-292 292 0 161 131 292 292 292 161 0 292-131 292-292 0-161-131-292-292-292z m-80 287c-53 0-95-42-95-95 0-17 14-31 32-31h203c17 0 32 14 32 31 0 53-43 95-95 95h-13l-23-21c-1-2-4-2-6 0l-22 21h-13z m99 73c0 33-27 60-61 60-33 0-60-27-60-60 0-34 27-61 60-61 34 0 61 27 61 61z m10 31c0-26 21-47 47-47 25 0 46 21 46 47 0 26-21 47-46 47-26 0-47-21-47-47z m125-157c12 0 21 9 21 19l0 1c0 2-1 4-1 5-6 34-35 60-70 61l-3 0h-40c-8 0-15-4-18-11 35-13 64-40 78-75h33z" horiz-adv-x="1000" />

<glyph glyph-name="brand-clubhouse" unicode="&#xedcd;" d="M500 850c-276 0-500-224-500-500 0-276 224-500 500-500 276 0 500 224 500 500 0 276-224 500-500 500z m-248-630c-6-52 31-97 84-100 9 0 17-8 16-17 0-10-8-17-18-16-72 4-124 65-115 137 1 9 9 16 19 15 9-1 15-10 14-19z m181 369l102-118 0 0 100-114 39 113c1 2 3 3 6 3 22 1 36-15 42-49l0-3 7-46c3-16 4-31 5-47 2-66-12-123-51-166-103-108-190-99-275 5l-124 140c-11 12-10 29 2 39 11 10 27 10 37 0l2-2 66-73c14-12 29 3 19 18l1-1-136 153c-11 12-10 29 2 40 11 9 27 9 37 0l2-3 105-117c15-11 27 10 11 27-1 1-2 2-2 3l-129 143c-10 12-9 29 2 40 11 9 27 9 38 0l2-2 126-141c12-9 22 0 16 13l-95 109c-10 11-8 29 3 39 11 10 27 9 37 0l3-3z m-124-372c-3-21 12-39 34-40 9-1 16-9 16-18-1-9-9-17-18-16-41 2-70 37-65 78 1 9 9 16 18 15 9-1 16-10 15-19z m305 269c-9 2-15 11-14 20 4 21-10 40-32 42-9 1-15 9-14 19 1 9 9 16 18 15 41-5 68-42 61-82-1-9-10-15-19-14z m56-6c-9 2-15 11-13 20 9 52-26 98-79 104-9 1-16 9-15 18 1 10 9 16 19 15 72-7 120-72 108-143-2-9-11-15-20-14z" horiz-adv-x="1000" />

<glyph glyph-name="brand-codepen" unicode="&#xedce;" d="M500 850c-276 0-500-224-500-500 0-276 224-500 500-500 276 0 500 224 500 500 0 276-224 500-500 500z m-19-216c11 10 28 10 39 0l211-186c2-2 4-4 6-6 8-5 14-15 14-26v-132c0-11-6-21-14-26-2-2-4-4-6-6l-211-186c-11-10-28-10-39 0l-211 186c-2 2-4 4-6 6-8 5-14 15-14 26v132c0 11 6 21 14 26 2 2 4 4 6 6l211 186z m190-284l20 17v-34l-20 17z m-341 0l-20 17v-34l20 17z m45-40l-40-35 135-120v71l-95 84z m291-35l-40 35-95-84v-71l135 120z m-86 75l-80 70-79-70 79-70 80 70z m46 40l40 35-135 120v-71l95-84z m-251 0l-40 35 135 120v-71l-95-84z" horiz-adv-x="1000" />

<glyph glyph-name="brand-dribbble" unicode="&#xedcf;" d="M500 850c-276 0-500-224-500-500 0-276 224-500 500-500 276 0 500 224 500 500 0 276-224 500-500 500z m-187-328c20 21 43 37 68 50 29-45 57-94 83-145-75-22-153-31-221-28 11 45 34 88 70 123z m169-146c2 0 4 1 6 1 9-21 18-42 27-63-1-1-2-1-4-2-85-30-163-79-218-143-41 51-60 114-58 176 77-4 164 6 247 31z m229 120c35-46 53-101 54-155-64 9-132 4-198-12-9 22-18 44-28 66 63 24 123 58 172 101z m-195-52c-26 52-54 102-84 147 83 22 174 3 242-56-44-38-99-69-158-91z m-185-314c48 57 119 103 198 131 2 1 4 1 6 2 22-61 41-121 53-178-85-30-183-15-257 45z m256 148c58 13 118 17 174 9-10-51-34-100-73-140-16-15-32-28-49-38-13 54-31 111-52 169z" horiz-adv-x="1000" />

<glyph glyph-name="brand-edge" unicode="&#xedd0;" d="M500-150c276 0 500 224 500 500 0 276-224 500-500 500-276 0-500-224-500-500 0-276 224-500 500-500z m-273 598c44 118 151 194 277 194 19 0 38-2 57-6 153-29 207-153 220-191 8-22 29-98-25-153-33-32-67-36-94-36-34 0-72 11-89 21l-4 2c-2 2-3 3-4 4-5 4-6 12-1 18l1 1c0 1 0 1 0 1 3 3 8 10 12 25 3 14 6 36-5 57h0c-30 69-120 123-206 124h-1c-55 0-102-22-138-61z m-18-75c32 70 88 109 156 109h1c50 0 102-21 140-53-2 0-4 0-6 0h0c-16 0-31-5-44-13l0 0c-84-58-120-152-92-240 18-53 55-94 105-118-56 7-96 27-109 34-87 49-161 159-151 281z m181-189c-18 56-6 115 31 163-1-16 3-30 8-40 39-88 115-111 140-119 18-5 40-8 63-8 28 0 53 4 70 11 5 2 8 3 11 4 1 0 1 1 2 1 2 1 4 1 6 2l6 3c6 3 12 1 16-3 4-5 4-12 1-17l-1-1c-49-63-107-102-174-117-85 0-155 47-179 121z" horiz-adv-x="1000" />

<glyph glyph-name="brand-elementor" unicode="&#xedd1;" d="M500-150c276 0 500 224 500 500 0 276-224 500-500 500-276 0-500-224-500-500 0-276 224-500 500-500z m-156 750c10 0 17-7 17-17v-466c0-9-7-17-17-17h-77c-9 0-17 8-17 17v466c0 10 8 17 17 17h77z m406-94c0-10-7-17-17-17h-300c-9 0-16 7-16 17v77c0 10 7 17 16 17h300c10 0 17-7 17-17v-77z m0-117v-78c0-9-7-16-17-16h-300c-9 0-16 7-16 16v78c0 9 7 17 16 17h300c10 0 17-8 17-17z m0-272c0-9-7-17-17-17h-300c-9 0-16 8-16 17v77c0 10 7 17 16 17h300c10 0 17-7 17-17v-77z" horiz-adv-x="1000" />

<glyph glyph-name="brand-facebook" unicode="&#xedd2;" d="M500-150c276 0 500 224 500 500 0 276-224 500-500 500-276 0-500-224-500-500 0-276 224-500 500-500z m-292 500c0 161 131 292 292 292 161 0 292-131 292-292 0-150-113-273-258-290v208h60l9 69h-69v44c0 20 5 34 34 34h37v62c-18 2-36 3-54 3-53 0-89-33-89-92v-51h-59v-69h59v-207c-143 18-254 141-254 289z" horiz-adv-x="1000" />

<glyph glyph-name="brand-firefox" unicode="&#xedd3;" d="M0 350c0-276 224-500 500-500 276 0 500 224 500 500 0 276-224 500-500 500-276 0-500-224-500-500z m238 141c-9 70 31 99 31 99 0 0 3-19 14-36 54 58 131 94 217 94 162 0 294-130 294-291 0-4-1-8-3-12-6-135-114-275-291-275-117 0-189 61-225 104-20 24-29 42-29 42-26 46-36 90-37 128-2 4-4 9-4 13 0 48 12 94 33 134z m107 47c9 0 18-1 27-3 0 0 28 40 78 32-29-23-39-41-40-56-1-12 12-23 31-23 10 0 37 0 48-3 7-2 5-14 3-19-7-15-43-42-69-61-11-8-19-14-23-18-3 0-9-7-10-13-8-29 40-79 112-45 26 12 49-6 57-16 8-8 4-20-11-18-6 1-17-6-28-12-5-4-10-7-15-10-11-6-39-6-60-6-21 0-37 1-29-5 148-107 294 37 286 223-42 65-117 109-202 109-59 0-114-21-155-56z" horiz-adv-x="1000" />

<glyph glyph-name="brand-flickr" unicode="&#xedd4;" d="M500 850c-276 0-500-224-500-500 0-276 224-500 500-500 276 0 500 224 500 500 0 276-224 500-500 500z m292-500v0c0-161-131-292-292-292h0c-161 0-292 131-292 292 0 161 131 292 292 292 161 0 292-131 292-292z m-460 0c0-40 33-73 74-73 40 0 73 33 73 74 0 40-33 74-74 74h0c-41-1-74-34-73-75z m266 75c-41-1-74-34-74-75 0-40 33-73 74-73 41 0 74 33 74 74 0 40-33 74-74 74h0z" horiz-adv-x="1000" />

<glyph glyph-name="brand-gamipress" unicode="&#xedd5;" d="M500-150c276 0 500 224 500 500 0 276-224 500-500 500-276 0-500-224-500-500 0-276 224-500 500-500z m181 313h-363c-17 0-33 11-39 28l-68 199c-13 38 30 70 63 48l44-31c-1-5-2-11-2-16 0-36 28-64 63-64 35 0 64 28 64 64 0 28-19 51-44 60l62 126c15 31 60 31 75 0l61-126c-25-9-43-33-43-60 0-36 28-64 63-64 35 0 64 28 64 64 0 5-1 11-2 16l48 33c33 22 75-11 62-48l-69-201c-5-17-21-28-39-28z" horiz-adv-x="1000" />

<glyph glyph-name="brand-github" unicode="&#xedd6;" d="M500 850c-276 0-500-224-500-500 0-276 224-500 500-500 276 0 500 224 500 500 0 276-224 500-500 500z m-128-375c-15 6-31-5-31-21l-2-64c-16-21-26-45-26-71 0-74 52-134 118-138-29-46-28-99-28-99v-24c-33 14-95 46-137 103-35 48-58 111-58 178 0 88 34 158 79 207 59 65 140 96 213 96 73 0 154-31 214-96 44-49 78-119 78-207 0-67-23-130-58-178-42-57-104-89-137-103v24c0 0 1 53-28 99 66 4 118 64 118 138 0 26-10 50-26 71l-2 64c0 16-16 27-31 21l-67-24c-19 4-40 7-61 7-21 0-41-3-60-7l-68 24z" horiz-adv-x="1000" />

<glyph glyph-name="brand-google" unicode="&#xedd7;" d="M500 850c-276 0-500-224-500-500 0-276 224-500 500-500 276 0 500 224 500 500 0 276-224 500-500 500z m0-212c70 0 134-26 184-67 16-13 18-37 5-53-13-16-37-18-53-5-37 31-84 50-136 50-117 0-212-96-212-213 0-117 95-212 212-212 105 0 192 75 209 175h-178c-20 0-37 16-37 37 0 21 17 38 37 38h219c21 0 38-17 38-38 0-159-129-287-288-287-159 0-287 128-287 287 0 159 128 288 287 288z" horiz-adv-x="1000" />

<glyph glyph-name="brand-gitlab" unicode="&#xedd8;" d="M500 850c-276 0-500-224-500-500 0-276 224-500 500-500 276 0 500 224 500 500 0 276-224 500-500 500z m-194-260c3 11 19 11 23 0l171-488-282 201c-8 6-12 17-8 26l96 261z m194-488l171 488c4 11 20 11 23 0l97-261c3-9-1-20-9-26l-282-201z m-82 292h163l-81-234-82 234z" horiz-adv-x="1000" />

<glyph glyph-name="brand-google-admob" unicode="&#xedd9;" d="M500 850c-276 0-500-224-500-500 0-276 224-500 500-500 276 0 500 224 500 500 0 276-224 500-500 500z m250-700l0-4c0-26-20-46-46-46-23 0-43 18-45 42l0 4c0 25 20 46 45 46 24 0 44-19 46-42z m-204 404c0-25-21-45-46-45-88 0-159-71-159-159 0-87 71-158 159-158 25 0 46-21 46-46 0-25-21-46-46-46-138 0-250 112-250 250 0 138 112 250 250 250 25 0 46-20 46-46z m204-197l0-7 0-154c-12 11-27 17-45 17-18 0-34-7-46-19l0 156c0 73-50 135-117 153 13 11 22 27 23 45l0 5 0 6c-1 14-6 26-14 36 111-23 196-120 199-238z" horiz-adv-x="1000" />

<glyph glyph-name="brand-google-firebase" unicode="&#xedda;" d="M500 850c-276 0-500-224-500-500 0-276 224-500 500-500 276 0 500 224 500 500 0 276-224 500-500 500z m-238-695c-12 7-20 19-21 32-1 3-1 7-1 10l15 384c1 39 52 53 73 20l76-122 38 65c16 27 54 26 69-1l44-79 57 45c24 19 59 7 66-23l62-269c4-19-5-38-21-46l-207-112c-26-13-56-13-81 1l-169 95z m36 147l75 126c-1 1-2 2-3 4l-63 100-9-230z m213 131l-35 62-109-182 146 117c-1 1-2 2-2 3z" horiz-adv-x="1000" />

<glyph glyph-name="brand-google-fonts" unicode="&#xeddb;" d="M500 850c-276 0-500-224-500-500 0-276 224-500 500-500 276 0 500 224 500 500 0 276-224 500-500 500z m-45-683l-7-15c-3-5-8-9-14-10l-3 0h-160c-15 0-24 15-19 28l2 3 201 327v-333z m210 391c-43-4-77-41-77-86 0-42 29-77 69-85-60-7-107-58-107-119 0-66 53-120 118-121 0 0 0 0 0 0l2 0c-1 0-1 0-2 0-1 0-2 0-3 0l-3-1h-160c-10 0-18 8-20 18l0 2v372c0 10 8 19 17 20l3 0h160c1 0 2 0 3 0z m9-210c1 0 1-1 1-1 0 0 1 0 1 0 1 0 2 0 3 0 1 0 1 0 2 0 0 0 1 0 1 0 4-1 7-2 10-3 34-9 58-40 58-76 0-40-29-74-68-80 0 0-1 0-2 0l0 0c0 0-1 0-1 0l0 0c-1 0-2 0-3 0-1 0-1 0-2 0l0 0c-1-1-3-1-4-1-44 0-80 36-80 81 0 44 36 80 80 80 1 0 3 0 4 0z m54 124c0-30-24-54-53-54-30 0-54 24-54 54 0 29 24 53 54 53 29 0 53-24 53-53z m-344 19c0-37-30-67-67-67-37 0-67 30-67 67 0 37 30 67 67 67 37 0 67-30 67-67z" horiz-adv-x="1000" />

<glyph glyph-name="brand-instagram" unicode="&#xeddc;" d="M500 850c-276 0-500-224-500-500 0-276 224-500 500-500 276 0 500 224 500 500 0 276-224 500-500 500z m125-750h-250c-69 0-125 56-125 125v250c0 69 56 125 125 125h250c69 0 125-56 125-125v-250c0-69-56-125-125-125z m-14 389c0-15 13-28 28-28 15 0 28 13 28 28 0 15-13 28-28 28-15 0-28-13-28-28z m-59-87c28-29 28-75 0-103-29-29-75-29-104 0-28 28-28 74 0 103 29 28 75 28 104 0z m-142 38c-49-50-49-130 0-180 50-49 130-49 180 0 50 50 50 130 0 180-50 50-130 50-180 0z" horiz-adv-x="1000" />

<glyph glyph-name="brand-learndash" unicode="&#xeddd;" d="M500-150c276 0 500 224 500 500 0 276-224 500-500 500-276 0-500-224-500-500 0-276 224-500 500-500z m-156 461c29 0 53-24 53-53v-63c0-53-42-95-95-95-6 0-10 5-10 11v147c0 29 23 53 52 53z m106 105c0 29 23 52 52 52 29 0 53-23 53-52v-221c0-53-43-95-95-95-6 0-10 5-10 11v305z m210 184c29 0 53-24 53-53v-352c0-53-43-95-95-95-6 0-10 5-10 11v436c0 29 23 53 52 53z" horiz-adv-x="1000" />

<glyph glyph-name="brand-lifterlms" unicode="&#xedde;" d="M1000 350c0 276-224 500-500 500-276 0-500-224-500-500 0-276 224-500 500-500 276 0 500 224 500 500z m-615-228l21 179c2 7 12 9 16 3 20-28 82-62 120-69 7-2 9-10 4-15l-142-108c-8-8-21-1-19 10z m161 186c-13-17-34-25-56-27-7 0-13 3-16 10-9 20-12 42-3 62l-101 60c-7 4-10 11-8 18 2 8 8 13 16 13l103 2c8 31 22 61 41 89 30 44 73 76 122 95 12 4 24 8 36 11 9 2 18-3 20-11 3-12 6-25 7-37 7-53-2-106-25-154-15-30-36-55-59-78l47-91c3-7 2-15-4-20-5-5-13-6-19-2l-101 60z m102 184c0 23-18 42-41 43-23 1-42-17-43-40-1-23 17-43 40-44 23-1 43 17 44 41z m-132 95c1-17-12-32-29-33-74-5-144-45-183-114-41-70-40-152-6-219l24 114c4 16 21 27 38 24 16-4 27-20 24-37l-39-183c-3-11-11-20-22-24-11-3-23 0-31 9-88 91-109 232-43 347 51 88 140 139 234 145 17 1 32-12 33-29z m259-140c42-84 42-187-9-274-66-115-199-168-322-137-11 2-20 11-22 22-3 12 0 23 9 31l139 125c13 12 32 11 44-2 11-13 10-33-2-44l-87-78c75 4 147 44 187 114 40 69 40 149 7 216-7 15-1 34 15 41 15 8 34 2 41-14z" horiz-adv-x="1000" />

<glyph glyph-name="brand-linkedin" unicode="&#xeddf;" d="M500 850c-276 0-500-224-500-500 0-276 224-500 500-500 276 0 500 224 500 500 0 276-224 500-500 500z m146-771h-292c-69 0-125 56-125 125v292c0 69 56 125 125 125h292c69 0 125-56 125-125v-292c0-69-56-125-125-125z m-277 151c0-4 4-8 8-8h38c4 0 8 4 8 8v163c0 5-4 9-8 9h-38c-4 0-8-4-8-9v-163z m185 127c22 0 29-18 29-40v-87c0-4 4-8 9-8h43c4 0 8 4 8 8v87c0 57-24 96-85 85-16-3-27-9-35-17v8c0 5-4 9-9 9h-37c-5 0-9-4-9-9v-163c0-4 4-8 9-8h37c5 0 9 4 9 8v87l0 0c0 22 9 40 31 40z m-158 76c17 0 31 14 31 32 0 17-14 31-31 31-17 0-32-14-31-31 0-18 14-32 31-32z" horiz-adv-x="1000" />

<glyph glyph-name="brand-medium" unicode="&#xede0;" d="M500 850c-276 0-500-224-500-500 0-276 224-500 500-500 276 0 500 224 500 500 0 276-224 500-500 500z m-158-642c-74 0-134 60-134 133 0 74 60 134 134 134 74 0 134-60 134-134 0-73-60-133-134-133z m328 133c0-67-38-121-85-121-47 0-85 54-85 121 0 67 38 122 85 122 47 0 85-55 85-122z m73-109c-27 0-49 49-49 109 0 61 22 110 49 110 27 0 49-49 49-110 0-60-22-109-49-109z" horiz-adv-x="1000" />

<glyph glyph-name="brand-paidmembershipspro" unicode="&#xede4;" d="M500 850c-276 0-500-224-500-500 0-276 224-500 500-500 276 0 500 224 500 500 0 276-224 500-500 500z m210-385c-72-42-127-79-167-111-79-63-150-146-213-250-2-4-7-5-11-3-1 1-2 2-3 4l-66 183c0 1 0 2 1 2 1 0 1 0 2-1l74-96c100 123 222 212 368 268l15 6c0 0 1 0 1-1 0 0 0 0-1-1z m-4-145l17-136c1-7-4-13-11-14 0 0-1 0-2 0l-319 5c3 5 7 10 11 14l301-1c3 0 5 2 6 5 0 0-1 0-1 1l-14 124c0 4 2 7 6 7l0 0c3 0 6-2 6-5z m-34 27l13-125c1-7-4-13-11-14 0 0-1 0-1 0l-259-2c4 5 8 10 12 15l240 5c2 0 5 3 4 5l0 1-10 113c0 4 2 6 5 7 4 0 7-2 7-5z m-105 181l0-4 0-14 28 6c17 4 33-7 37-23 0-2 0-4 0-6l2-40c-5-3-10-5-15-8-5 5-10 7-17 8 5 4 9 11 10 18 2 14-6 27-17 30l-3 0-2 0-3 0c-11-1-20-10-22-23-2-13 5-26 16-29-13-7-23-21-24-37l0 0c-5-3-10-6-15-9-8 7-20 10-31 9l-1 0 3 1c6 4 11 11 13 19l1 4c2 17-8 32-23 34-14 2-27-8-30-23l-1-4 0-3c-1-14 7-27 20-30l3-1 2 0-5-1c-19-5-34-21-35-41l0-4 0-19c-4-2-8-5-11-8-7 18-23 29-41 30l-4 0-1 0c9 5 16 15 17 27 3 17-7 34-22 37l-3 1-3 0-3 0c-14-1-27-13-29-30-2-17 7-33 21-38l3 0-10-2c-20-4-35-21-36-42l-1-3 0-80c-2-3-4-5-7-7l-2-3-15 18 13 196c1 13 11 25 24 28l41 9 0 30c0 43 28 81 69 93l3 0 12 4c41 10 82-14 92-55 1-5 2-10 2-15z m83-274c0-7-5-13-12-13l-1 0-199-5c36 41 73 78 112 109l3 3 7 5 6 5 8 5 7 6 7 5 8 6c3 2 6 4 8 5l9 6 4 3 9 6 10 7 14-153z m-167 306l2 1c19 4 38-8 43-27 1-3 1-6 1-10l0-22-102-23 0 22 0 2c1 26 19 48 43 54l13 3z" horiz-adv-x="1000" />

<glyph glyph-name="brand-pinterest" unicode="&#xede5;" d="M500 850c-276 0-500-224-500-500 0-276 224-500 500-500 276 0 500 224 500 500 0 276-224 500-500 500z m206-294c114-114 114-298 0-412-114-114-298-114-412 0-114 114-114 298 0 412 114 114 298 114 412 0z m-279-309c-4-15-9-54 4-59 13-4 30 33 34 48 3 9 14 54 14 54 7-13 26-25 47-25 62 0 104 58 104 135 0 58-49 112-122 112-92 0-138-67-138-122 0-34 13-64 40-75 4-2 8 0 9 5 1 1 2 5 3 8l0 0 0 0c0 3 1 6 1 7 2 5 1 7-2 11-8 10-13 22-13 39 0 49 36 94 95 94 51 0 80-33 80-76 0-56-25-104-61-104-20 0-36 17-31 38 2 9 5 18 8 27l0 0 0 0c5 16 9 31 9 43 0 16-8 29-26 29-20 0-37-22-37-51 0-18 6-31 6-31 0 0-21-91-24-107z" horiz-adv-x="1000" />

<glyph glyph-name="brand-pusher" unicode="&#xede6;" d="M500-150c276 0 500 224 500 500 0 276-224 500-500 500-276 0-500-224-500-500 0-276 224-500 500-500z m229 681l0 0-1-53-218-108v-33l219 109-1-52-218-108v-33l219 108-1-52-218-108 0-143-50 25 0 363-35 18 2-4v-359l-51 24 0 363-35 18 2-3v-360l-50 24-1 364 0 0 0 0 0 0 52 26 216-110 34 17-2 0-217 109 53 26 217-110 34 17-3 0-217 110 51 26 219-111z" horiz-adv-x="1000" />

<glyph glyph-name="brand-quora" unicode="&#xede7;" d="M500-150c276 0 500 224 500 500 0 276-224 500-500 500-276 0-500-224-500-500 0-276 224-500 500-500z m269 529c0-95-50-177-123-224 9-20 30-34 46-41 11-5 20-16 20-29 0-13-9-25-23-26-64-5-96 24-119 65-19-5-40-8-61-8-143 0-259 118-259 263 0 145 116 263 259 263 143 0 260-118 260-263z m-162-148c23 29 37 69 37 113l0 68c0 90-60 164-133 164-73 0-132-74-132-164v-68c0-90 59-164 132-164 11 0 21 2 31 5-12 21-28 33-40 39-13 7-25 19-25 34 0 14 12 26 26 25 44-5 80-26 104-52z" horiz-adv-x="1000" />

<glyph glyph-name="brand-reddit" unicode="&#xede8;" d="M500 850c-276 0-500-224-500-500 0-276 224-500 500-500 276 0 500 224 500 500 0 276-224 500-500 500z m32-387c60-6 113-25 153-54 26 23 66 22 89-3 25-26 23-66-2-90-5-4-10-8-15-10 1-7 2-14 2-22 0-96-114-179-259-179-145 0-259 83-259 179 0 8 1 15 2 22-5 2-10 5-15 10-25 24-26 64-2 90 24 25 63 26 89 3 40 29 93 48 154 54 0 2 0 5 1 8l19 87c11 50 60 81 110 71l65-13c5 2 11 4 16 4 24 0 43-20 43-43 0-24-19-43-43-43-16 0-31 9-38 23l-55 11c-17 4-33-7-37-24l-18-81z m30-145c0-17 14-31 32-31 17 0 31 14 31 32 0 17-14 31-31 31-18 0-32-14-32-32z m-164 32c-17 0-31-14-31-32 0-17 14-31 31-31 18 0 32 14 32 32 0 17-15 31-32 31z m-26-116c-5-14 2-30 16-35 33-12 71-19 112-19 41 0 79 7 112 19 14 5 21 21 16 35-5 14-21 21-35 16-27-10-58-16-93-16-35 0-66 6-93 16-14 5-30-2-35-16z" horiz-adv-x="1000" />

<glyph glyph-name="brand-restrictcontentpro" unicode="&#xede9;" d="M0 350c0-276 224-500 500-500 276 0 500 224 500 500 0 276-224 500-500 500-276 0-500-224-500-500z m389 194h278c46 0 83-37 83-83v-278c0-46-37-83-83-83h-278c-46 0-83 37-83 83v278c0 46 37 83 83 83z m75-333c11 0 21 9 21 21v120c0 16 12 29 28 29h18c6 0 12-2 18-5 17-9 23-32 14-49-6-10-14-19-24-25-7-3-10-11-7-18l31-61c3-7 11-12 18-12h20c16 0 26 17 18 31l-20 35c10 11 20 28 30 52 4 10 7 20 7 30 0 41-34 74-75 74h-87c-32 0-57-25-57-57v-144c0-12 9-21 21-21h26z m-201 306v-165c0-15-13-28-28-28-14 0-27 13-27 28v165c0 69 56 125 126 125h168c15 0 27-12 27-27 0-15-12-27-27-27h-168c-40 0-71-32-71-71z" horiz-adv-x="1000" />

<glyph glyph-name="brand-safari" unicode="&#xedea;" d="M500 850c-276 0-500-224-500-500 0-276 224-500 500-500 276 0 500 224 500 500 0 276-224 500-500 500z m0-792c-161 0-292 131-292 292 0 161 131 292 292 292 161 0 292-131 292-292 0-161-131-292-292-292z m27 482c0 15-12 27-27 27-15 0-27-12-27-27v-15c0-15 12-27 27-27 15 0 27 12 27 27v15z m-217-163c-14 0-27-12-27-27 0-15 13-27 27-27h15c15 0 27 12 27 27 0 15-12 27-27 27h-15z m365 0c-15 0-27-12-27-27 0-15 12-27 27-27h15c15 0 27 12 27 27 0 15-12 27-27 27h-15z m-175-175c-15 0-27-12-27-27v-15c0-14 12-27 27-27 15 0 27 13 27 27v15c0 15-12 27-27 27z m105 44c-11-11-11-28 0-39l10-10c11-11 28-11 38 0 11 10 11 27 0 38l-10 11c-11 10-28 10-38 0z m-220 257c-11 11-28 11-38 0-11-10-11-27 0-38l10-10c11-11 28-11 39 0 10 10 10 27 0 38l-11 10z m239 11c17 9 36-9 28-27l-88-206-188-95c-17-9-36 9-28 27l88 206 188 95z m-124-193c16 0 29 13 29 29 0 16-13 29-29 29-16 0-29-13-29-29 0-16 13-29 29-29z" horiz-adv-x="1000" />

<glyph glyph-name="brand-skype" unicode="&#xedeb;" d="M500 850c-276 0-500-224-500-500 0-276 224-500 500-500 276 0 500 224 500 500 0 276-224 500-500 500z m-222-238c50 36 121 40 174 8 61 11 125 1 178-28 60-33 108-88 130-153 15-43 18-91 10-137 20-34 26-74 19-113-9-42-35-80-71-104-50-34-118-35-170-5-58-10-119-2-172 25-61 31-109 85-133 149-17 45-21 96-13 144-20 34-26 76-18 115 8 40 32 76 66 99z m169-178c8 6 25 12 53 12 18 0 34-4 45-10 12-6 17-13 18-17 6-17 25-27 43-21 17 6 26 25 20 43-8 24-28 42-49 54-22 12-49 18-77 18-37 0-69-8-92-25-25-17-38-43-38-72 0-45 32-83 76-91l97-16c12-2 21-12 21-24 0-6-3-12-10-18-9-6-26-12-54-12-18 0-34 4-45 10-12 6-17 13-18 17-6 17-25 27-42 21-18-6-27-25-21-43 8-24 28-42 49-54 22-12 49-18 77-18 37 0 69 8 92 25 24 17 38 42 39 70 0 1 0 1 0 1v1c0 1 0 1 0 1-1 44-33 82-77 89l-97 16c-12 2-21 12-21 25 0 6 3 12 11 18z" horiz-adv-x="1000" />

<glyph glyph-name="brand-snapchat" unicode="&#xedec;" d="M500 850c-276 0-500-224-500-500 0-276 224-500 500-500 276 0 500 224 500 500 0 276-224 500-500 500z m6-292c34-1 64-16 86-38 23-23 38-55 38-91 0-29 0-53 3-74l25 21c8 7 19 10 29 10 10-1 20-5 28-13 7-8 11-17 11-27 0-10-5-21-13-28l-42-36c11-8 25-16 43-24l10-5c10-4 10-18 0-22l-10-5c-40-17-40-18-60-60l0 0c-49-10-71-23-90-34 0 0 0 0-1 0-20-12-39-22-63-22-24 0-43 10-63 22 0 0-1 0-1 0-19 11-41 24-74 24l-1 1c-35 51-35 52-75 69l-10 5c-10 4-10 18 0 22l10 5c19 8 33 16 45 26l-45 34c-9 8-13 18-14 27 0 10 3 21 11 28 7 8 16 12 25 13 10 2 20 0 29-6l30-23c3 20 3 44 3 72 0 36 15 68 38 91 24 24 56 38 92 38l6 0z" horiz-adv-x="1000" />

<glyph glyph-name="brand-slack" unicode="&#xeded;" d="M500 850c-276 0-500-224-500-500 0-276 224-500 500-500 276 0 500 224 500 500 0 276-224 500-500 500z m-54-527c28-2 50-25 50-54v-115c0-28-21-51-49-54l-5 0c-29 0-53 24-53 54v115c0 28 21 51 49 54l3 0 5 0z m188-165l1-4c0-28-21-51-50-54l-4 0c-30 0-54 24-54 54v35c0 10 9 19 19 19h35c28 0 51-21 53-50z m-276 146v-35c0-28-21-51-50-53l-4-1c-28 0-51 22-54 50l0 4c0 30 24 54 54 54h35c10 0 19-8 19-19z m392-7l0-5c0-29-24-53-54-53h-115c-28 0-51 21-54 49l0 4c0 30 24 54 54 54h115c28 0 51-21 54-49z m-277 115l0-4c0-30-24-54-54-54h-115c-28 0-51 21-54 49l0 5c0 29 24 54 54 54h115c28 0 51-22 54-50z m139 134v-115c0-28-22-51-50-54l-4 0c-30 0-54 24-54 54v115c0 28 21 51 49 54l5 0c29 0 54-24 54-54z m88-61c26-2 47-23 50-50l0-4c0-30-24-54-54-54h-34c-11 0-20 9-20 19v35c0 28 22 51 50 53l3 1 5 0z m-227 61v-34c0-11-8-20-19-20h-35c-28 0-51 22-53 50l-1 4c0 28 22 51 50 54l4 0c30 0 54-24 54-54z" horiz-adv-x="1000" />

<glyph glyph-name="brand-spotify" unicode="&#xedee;" d="M500 850c-276 0-500-224-500-500 0-276 224-500 500-500 276 0 500 224 500 500 0 276-224 500-500 500z m206-294c114-114 114-298 0-412-114-114-298-114-412 0-114 114-114 298 0 412 114 114 298 114 412 0z m-187-137c56-7 105-23 135-41 12-8 29-4 37 8 8 13 4 30-8 38-39 24-97 41-158 49-61 7-130 4-190-13-14-5-22-20-18-34 4-14 19-23 33-18 52 15 113 17 169 11z m-155-96c91 28 199 7 256-30 13-8 30-4 38 8 8 13 4 30-8 38-71 45-196 68-302 35-14-4-22-19-18-34 5-14 20-22 34-17z m229-104c12-7 29-3 37 10 7 12 3 29-9 37-65 38-148 56-263 30-15-3-24-18-21-32 3-15 18-24 33-21 103 23 172 7 223-24z" horiz-adv-x="1000" />

<glyph glyph-name="brand-telegram" unicode="&#xedef;" d="M0 350c0-276 224-500 500-500 276 0 500 224 500 500 0 276-224 500-500 500-276 0-500-224-500-500z m365-32l-104 33c-14 4-15 24-1 29l459 177c17 6 34-9 31-26l-79-369c-4-19-26-27-42-16l-91 68c-1-1-2-2-3-3l-61-60c-25-24-68-13-78 20 0 1 0 2 0 3l-31 144z m129-71l-24 17c-13 9-13 28-2 39 40 35 116 104 116 104l-166-77 28-130 48 47z" horiz-adv-x="1000" />

</font>
</defs>
</svg>
